Скачать через торрент музыку Snatch - 2001, APE бесплатно без регистрации torrent

Если у вас наблюдаются проблемы со скриншотами, переходом по ссылками, скачиванием торрентов - проблемы в блокировщике рекламы AdBlock. #хорошегоДня!


Статистика раздачи
Размер:  324 MB   |    Зарегистрирован:  6 лет 2 месяца   |    .torrent скачан:  49 раз   |   
Раздают:  1  
   
Загрузка...
 
Автор Сообщение

Galfimbul

avatar Galfimbul


Snatch

Страна: UK
Жанр: Soundtrack
Год выпуска: 2001
Формат: APE (image + .cue)
Битрейт аудио: lossless
Продолжительность: 57:53
Трэклист:
"Diamond" - Klint
"Vere Iz da Storn?" - Benicio del Toro
"Supermoves" - Overseer
"Hernando's Hideaway"
"Zee Germans" - Jason Statham
"Golden Brown" - The Stranglers
"Dreadlock Holiday" - 10cc
"Kosha Nostra Theme"
"Avi Arrives" - Dennis Farina
"Cross the Tracks (We Better Go Back)" - Maceo & the Macks
"Disco Science" - Mirwais
"Nemesis" - Alan Ford
"Hot Pants (I'm Coming Coming I'm Coming)" - Bobby Byrd
"Lucky Star" - Madonna
"Come Again" - Alan Ford
"Ghost Town" - The Specials
"Shrinking Balls" - Vinnie Jones
"Sensual Woman" - The Herbaliser
"Angel" - Massive Attack
"RRRRR... Rumble"
"Fuckin' in the Bushes" - Oasis
"Avi's Declaration" - Dennis Farina
"Don't You Just Know It" - Huey "Piano" Smith
Доп. информация:
LOG:
Exact Audio Copy V0.99 prebeta 1 from 25. May 2007

Archivo Log de extracciones desde 5. Agosto 2007, 15:03

Various / Snatch

Usar unidad : PIONEER DVD-ROM DVD-116 Adapter: 2 ID: 1

Modo de Lectura : Explosivo

Correcciуn de Desplazamiento de Lectura : 102
Sobreleer tanto en Lead-In como en Lead-Out : No
Rellenar las muestras faltantes con silencios : Sн
Eliminar silencios inicial y final : No
Normalizar a : 98 %
Interfaz usada : Interfaz ASPI externo instalado

Formato de Salida utilizado : Compresor sin pйrdida Monkey's Audio
Bitrate seleccionado : Extra High Lossless Compression
Calidad : Alta
Aсadir Etiqueta ID3 : Sн
Compresor de linea de comandos : C:\Archivos de programa\Exact Audio Copy\Encoders\MAC.exe

TOC del CD extraido

Pista | Inicio | Duraciуn | Sector inicial | Sector final
-------------------------------------------------------------
1 | 0:00.00 | 3:14.67 | 0 | 14616
2 | 3:14.67 | 0:05.14 | 14617 | 15005
3 | 3:20.06 | 4:46.50 | 15006 | 36505
4 | 8:06.56 | 2:29.56 | 36506 | 47736
5 | 10:36.37 | 0:13.02 | 47737 | 48713
6 | 10:49.39 | 3:24.18 | 48714 | 64031
7 | 14:13.57 | 4:23.58 | 64032 | 83814
8 | 18:37.40 | 1:52.30 | 83815 | 92244
9 | 20:29.70 | 0:11.53 | 92245 | 93122
10 | 20:41.48 | 3:14.65 | 93123 | 107737
11 | 23:56.38 | 3:32.02 | 107738 | 123639
12 | 27:28.40 | 0:14.68 | 123640 | 124757
13 | 27:43.33 | 2:22.62 | 124758 | 135469
14 | 30:06.20 | 3:31.55 | 135470 | 151349
15 | 33:38.00 | 0:04.28 | 151350 | 151677
16 | 33:42.28 | 5:51.08 | 151678 | 178010
17 | 39:33.36 | 1:07.27 | 178011 | 183062
18 | 40:40.63 | 4:52.16 | 183063 | 204978
19 | 45:33.04 | 6:15.41 | 204979 | 233144
20 | 51:48.45 | 0:08.34 | 233145 | 233778
21 | 51:57.04 | 3:17.26 | 233779 | 248579
22 | 55:14.30 | 0:06.57 | 248580 | 249086
23 | 55:21.12 | 2:32.11 | 249087 | 260497

Gama de estados y errores

Seleccionar gama

Nombre de Archivo C:\Musica\Various - Snatch.wav

Nivel Pico 100.0 %
Copiar CRC 55EC23E3
Copia OK

Final del Informe


Трекер:  [ 07-Июл-2011 22:29 ]

  

Скачать .torrent

Размер .torrent файла 13 KB


Размер: 324 MB
Хэш (hash) релиза: 89d6129b459386f9244ad55614d2d48bbdb0354c

Еще никто не оставлял запись к записи скачать торрент Snatch - 2001, APE . Будь первым!

!Обратная связь