Скачать через торрент музыку Into The Wild В диких условиях бесплатно без регистрации torrent

Если у вас наблюдаются проблемы со скриншотами, переходом по ссылками, скачиванием торрентов - проблемы в блокировщике рекламы AdBlock. #хорошегоДня!


Статистика раздачи
Размер:  259 MB   |    Зарегистрирован:  6 лет 9 месяцев   |    .torrent скачан:  79 раз   |   
Раздают:  1  
   
Загрузка...
 
Автор Сообщение

AqvaGen


Into The Wild

Жанр: Score
Год выпуска диска: 2007
Производитель диска: USA
Аудио кодек: FLAC
Тип рипа: tracks+.cue
Битрейт аудио: lossless

1. Guaranteed
2. No Celing
3. Rise
4. Society
5. Lord Byron
6. Carving
7. Burning The Proof
8. Waking Waterskier
9. Pacific Crest Trail
10. Bird Snow Ice
11. The Combine & Wayne
12. Carthage Grain Sale
13. Free Satellite & Hunting Advice
14. Wayne's Arrest
15. Chris's California Trip
16. The Rapids & The Canyon
17. Childhood Adventure
18. Sea Of Cortez
19. Los Angeles At Night
20. Violence At Home
21. Billie & Hitchhiker
22. Shooting The Moose
23. Arrival At The Slabs
24. Salvation Mtn.
25. Selling Books
26. Chris Reads Tolstoy
27. Falling In The River
28. Regretting The Moose
29. Ron Climbs Hill
30. Starving & Reading
31. Chris Meets The Bear
32. Driving To The Highway
33. Where Are They Now?
34. Final Heartbeats
35. Dragon Slayer

Доп. информация: Диск прилагался вместе с выпуском журнала "The Hollywood Reporter" за 1 ноября 2007-го года. Диск помимо песен Эдди Веддера так же содержит скорки, написанные Майклом Бруком, Каки Кинг и, тем же, Эдди Веддером.
 
Exact Audio Copy V0.99 prebeta 3 from 28. July 2007

EAC extraction logfile from 13. May 2008, 17:18

Eddie Vedder and Michael Brook / Into The Wild - Oscar cd

Used drive : LITE-ON DVDRW SHW-160P6S Adapter: 0 ID: 0

Read mode : SecureUtilize accurate stream : YesDefeat audio cache : YesMake use of C2 pointers : No

Read offset correction : 6Overread into Lead-In and Lead-Out : NoFill up missing offset samples with silence : YesDelete leading and trailing silent blocks : NoNull samples used in CRC calculations : YesUsed interface : Installed external ASPI interfaceGap handling : Appended to previous track

Used output format : User Defined EncoderSelected bitrate : 320 kBit/sQuality : HighAdd ID3 tag : NoCommand line compressor : C:\Program Files\Exact Audio Copy\flac.exeAdditional command line options : -V -8 -T "artist=%a" -T "title=%t" -T "album=%g" -T "date=%y" -T "tracknumber=%n" -T "genre=%m" %s

TOC of the extracted CD

Track | Start | Length | Start sector | End sector --------------------------------------------------------- 1 | 0:00.00 | 2:43.10 | 0 | 12234 2 | 2:43.10 | 1:35.60 | 12235 | 19419 3 | 4:18.70 | 2:37.27 | 19420 | 31221 4 | 6:56.22 | 3:57.63 | 31222 | 49059 5 | 10:54.10 | 0:33.70 | 49060 | 51604 6 | 11:28.05 | 0:56.65 | 51605 | 55869 7 | 12:24.70 | 1:13.50 | 55870 | 61394 8 | 13:38.45 | 1:11.55 | 61395 | 66774 9 | 14:50.25 | 0:51.45 | 66775 | 70644 10 | 15:41.70 | 0:39.42 | 70645 | 73611 11 | 16:21.37 | 1:20.60 | 73612 | 79671 12 | 17:42.22 | 1:05.68 | 79672 | 84614 13 | 18:48.15 | 2:06.60 | 84615 | 94124 14 | 20:55.00 | 0:39.42 | 94125 | 97091 15 | 21:34.42 | 2:40.23 | 97092 | 109114 16 | 24:14.65 | 1:29.25 | 109115 | 115814 17 | 25:44.15 | 2:23.47 | 115815 | 126586 18 | 28:07.62 | 1:16.70 | 126587 | 132356 19 | 29:24.57 | 1:54.40 | 132357 | 140946 20 | 31:19.22 | 2:18.45 | 140947 | 151341 21 | 33:37.67 | 2:22.00 | 151342 | 161991 22 | 35:59.67 | 0:39.13 | 161992 | 164929 23 | 36:39.05 | 0:32.40 | 164930 | 167369 24 | 37:11.45 | 2:12.42 | 167370 | 177311 25 | 39:24.12 | 0:45.10 | 177312 | 180696 26 | 40:09.22 | 1:37.03 | 180697 | 187974 27 | 41:46.25 | 1:02.40 | 187975 | 192664 28 | 42:48.65 | 0:50.25 | 192665 | 196439 29 | 43:39.15 | 1:07.67 | 196440 | 201531 30 | 44:47.07 | 0:38.40 | 201532 | 204421 31 | 45:25.47 | 2:00.25 | 204422 | 213446 32 | 47:25.72 | 0:41.05 | 213447 | 216526 33 | 48:07.02 | 1:32.30 | 216527 | 223456 34 | 49:39.32 | 3:12.25 | 223457 | 237881 35 | 52:51.57 | 1:47.45 | 237882 | 245951

Track 1

Filename C:\My Stuff\EACrips\Eddie Vedder and Michael Brook - 2007 - Into The Wild - Oscar cd\01 - Guaranteed.wav

Pre-gap length 0:00:02.00

Peak level 98.3 % Track quality 100.0 % Test CRC 462CCAD7 Copy CRC 462CCAD7 Accurately ripped (confidence 2) [0EEA1612] Copy OK

Track 2

Filename C:\My Stuff\EACrips\Eddie Vedder and Michael Brook - 2007 - Into The Wild - Oscar cd\02 - No Celing.wav

Peak level 99.8 % Track quality 100.0 % Test CRC 36FDA3C9 Copy CRC 36FDA3C9 Accurately ripped (confidence 2) [9762C787] Copy OK

Track 3

Filename C:\My Stuff\EACrips\Eddie Vedder and Michael Brook - 2007 - Into The Wild - Oscar cd\03 - Rise.wav

Peak level 96.5 % Track quality 100.0 % Test CRC 9B0BF9B2 Copy CRC 9B0BF9B2 Accurately ripped (confidence 2) [670A6E36] Copy OK

Track 4

Filename C:\My Stuff\EACrips\Eddie Vedder and Michael Brook - 2007 - Into The Wild - Oscar cd\04 - Society.wav

Peak level 98.5 % Track quality 100.0 % Test CRC 8CA26C76 Copy CRC 8CA26C76 Accurately ripped (confidence 2) [CC524338] Copy OK

Track 5

Filename C:\My Stuff\EACrips\Eddie Vedder and Michael Brook - 2007 - Into The Wild - Oscar cd\05 - Lord Byron.wav

Peak level 89.0 % Track quality 100.0 % Test CRC AE66B24F Copy CRC AE66B24F Accurately ripped (confidence 2) [00EFE622] Copy OK

Track 6

Filename C:\My Stuff\EACrips\Eddie Vedder and Michael Brook - 2007 - Into The Wild - Oscar cd\06 - Carving.wav

Peak level 99.8 % Track quality 100.0 % Test CRC A2B72F00 Copy CRC A2B72F00 Accurately ripped (confidence 2) [D3280CBA] Copy OK

Track 7

Filename C:\My Stuff\EACrips\Eddie Vedder and Michael Brook - 2007 - Into The Wild - Oscar cd\07 - Burning The Proof.wav

Peak level 94.3 % Track quality 100.0 % Test CRC 1F05ADBF Copy CRC 1F05ADBF Accurately ripped (confidence 2) [ADC521C8] Copy OK

Track 8

Filename C:\My Stuff\EACrips\Eddie Vedder and Michael Brook - 2007 - Into The Wild - Oscar cd\08 - Waking Waterskier.wav

Peak level 89.0 % Track quality 99.8 % Test CRC 0289799E Copy CRC 0289799E Accurately ripped (confidence 2) [D26EA75C] Copy OK

Track 9

Filename C:\My Stuff\EACrips\Eddie Vedder and Michael Brook - 2007 - Into The Wild - Oscar cd\09 - Pacific Crest Trail.wav

Peak level 87.0 % Track quality 100.0 % Test CRC 18C1BE72 Copy CRC 18C1BE72 Accurately ripped (confidence 2) [4FF34674] Copy OK

Track 10

Filename C:\My Stuff\EACrips\Eddie Vedder and Michael Brook - 2007 - Into The Wild - Oscar cd\10 - Bird Snow Ice.wav

Peak level 91.1 % Track quality 100.0 % Test CRC 15FABA75 Copy CRC 15FABA75 Accurately ripped (confidence 2) [0D693F30] Copy OK

Track 11

Filename C:\My Stuff\EACrips\Eddie Vedder and Michael Brook - 2007 - Into The Wild - Oscar cd\11 - The Combine & Wayne.wav

Peak level 93.8 % Track quality 100.0 % Test CRC 2A621F16 Copy CRC 2A621F16 Accurately ripped (confidence 2) [19F449E2] Copy OK

Track 12

Filename C:\My Stuff\EACrips\Eddie Vedder and Michael Brook - 2007 - Into The Wild - Oscar cd\12 - Carthage Grain Sale.wav

Peak level 91.1 % Track quality 100.0 % Test CRC A4E322C5 Copy CRC A4E322C5 Accurately ripped (confidence 2) [1BE62AB3] Copy OK

Track 13

Filename C:\My Stuff\EACrips\Eddie Vedder and Michael Brook - 2007 - Into The Wild - Oscar cd\13 - Free Satellite & Hunting Advice.wav

Peak level 89.0 % Track quality 100.0 % Test CRC AAFDF358 Copy CRC AAFDF358 Accurately ripped (confidence 2) [DA42C641] Copy OK

Track 14

Filename C:\My Stuff\EACrips\Eddie Vedder and Michael Brook - 2007 - Into The Wild - Oscar cd\14 - Wayne's Arrest.wav

Peak level 89.0 % Track quality 100.0 % Test CRC DBB663A1 Copy CRC DBB663A1 Accurately ripped (confidence 2) [B1FA58D1] Copy OK

Track 15

Filename C:\My Stuff\EACrips\Eddie Vedder and Michael Brook - 2007 - Into The Wild - Oscar cd\15 - Chris's California Trip.wav

Peak level 89.0 % Track quality 100.0 % Test CRC 43731B50 Copy CRC 43731B50 Accurately ripped (confidence 2) [DA374E1E] Copy OK

Track 16

Filename C:\My Stuff\EACrips\Eddie Vedder and Michael Brook - 2007 - Into The Wild - Oscar cd\16 - The Rapids & The Canyon.wav

Peak level 89.1 % Track quality 99.8 % Test CRC 736D7C4B Copy CRC 736D7C4B Accurately ripped (confidence 2) [DF2C766E] Copy OK

Track 17

Filename C:\My Stuff\EACrips\Eddie Vedder and Michael Brook - 2007 - Into The Wild - Oscar cd\17 - Childhood Adventure.wav

Peak level 89.0 % Track quality 100.0 % Test CRC 95E8866D Copy CRC 95E8866D Accurately ripped (confidence 2) [5E6FFA7A] Copy OK

Track 18

Filename C:\My Stuff\EACrips\Eddie Vedder and Michael Brook - 2007 - Into The Wild - Oscar cd\18 - Sea Of Cortez.wav

Peak level 89.0 % Track quality 100.0 % Test CRC 073E72D9 Copy CRC 073E72D9 Accurately ripped (confidence 2) [F54256F1] Copy OK

Track 19

Filename C:\My Stuff\EACrips\Eddie Vedder and Michael Brook - 2007 - Into The Wild - Oscar cd\19 - Los Angeles At Night.wav

Peak level 89.0 % Track quality 99.9 % Test CRC 92AB2F4D Copy CRC 92AB2F4D Accurately ripped (confidence 2) [992D8FA7] Copy OK

Track 20

Filename C:\My Stuff\EACrips\Eddie Vedder and Michael Brook - 2007 - Into The Wild - Oscar cd\20 - Violence At Home.wav

Peak level 89.0 % Track quality 100.0 % Test CRC 21663DEA Copy CRC 21663DEA Accurately ripped (confidence 2) [2C4D6F7C] Copy OK

Track 21

Filename C:\My Stuff\EACrips\Eddie Vedder and Michael Brook - 2007 - Into The Wild - Oscar cd\21 - Billie & Hitchhiker.wav

Peak level 89.0 % Track quality 100.0 % Test CRC DC878EF0 Copy CRC DC878EF0 Accurately ripped (confidence 2) [111D27F5] Copy OK

Track 22

Filename C:\My Stuff\EACrips\Eddie Vedder and Michael Brook - 2007 - Into The Wild - Oscar cd\22 - Shooting The Moose.wav

Peak level 89.0 % Track quality 99.7 % Test CRC EB35670D Copy CRC EB35670D Accurately ripped (confidence 2) [A922C54C] Copy OK

Track 23

Filename C:\My Stuff\EACrips\Eddie Vedder and Michael Brook - 2007 - Into The Wild - Oscar cd\23 - Arrival At The Slabs.wav

Peak level 89.0 % Track quality 99.6 % Test CRC 62636FF4 Copy CRC 62636FF4 Accurately ripped (confidence 2) [345C3629] Copy OK

Track 24

Filename C:\My Stuff\EACrips\Eddie Vedder and Michael Brook - 2007 - Into The Wild - Oscar cd\24 - Salvation Mtn..wav

Peak level 92.1 % Track quality 100.0 % Test CRC C36B8D1D Copy CRC C36B8D1D Accurately ripped (confidence 2) [75841CF8] Copy OK

Track 25

Filename C:\My Stuff\EACrips\Eddie Vedder and Michael Brook - 2007 - Into The Wild - Oscar cd\25 - Selling Books.wav

Peak level 89.0 % Track quality 99.7 % Test CRC 118D4339 Copy CRC 118D4339 Accurately ripped (confidence 2) [6A218114] Copy OK

Track 26

Filename C:\My Stuff\EACrips\Eddie Vedder and Michael Brook - 2007 - Into The Wild - Oscar cd\26 - Chris Reads Tolstoy.wav

Peak level 97.6 % Track quality 100.0 % Test CRC 18975736 Copy CRC 18975736 Accurately ripped (confidence 2) [08B7D0F2] Copy OK

Track 27

Filename C:\My Stuff\EACrips\Eddie Vedder and Michael Brook - 2007 - Into The Wild - Oscar cd\27 - Falling In The River.wav

Peak level 91.0 % Track quality 100.0 % Test CRC BAEDF9A9 Copy CRC BAEDF9A9 Accurately ripped (confidence 2) [6FDE76EF] Copy OK

Track 28

Filename C:\My Stuff\EACrips\Eddie Vedder and Michael Brook - 2007 - Into The Wild - Oscar cd\28 - Regretting The Moose.wav

Peak level 89.0 % Track quality 100.0 % Test CRC 3CC5E399 Copy CRC 3CC5E399 Accurately ripped (confidence 2) [2BFEBDFE] Copy OK

Track 29

Filename C:\My Stuff\EACrips\Eddie Vedder and Michael Brook - 2007 - Into The Wild - Oscar cd\29 - Ron Climbs Hill.wav

Peak level 89.0 % Track quality 100.0 % Test CRC A7C1B7A3 Copy CRC A7C1B7A3 Accurately ripped (confidence 2) [F4DF2AAB] Copy OK

Track 30

Filename C:\My Stuff\EACrips\Eddie Vedder and Michael Brook - 2007 - Into The Wild - Oscar cd\30 - Starving & Reading.wav

Peak level 89.0 % Track quality 99.7 % Test CRC 566F3FBD Copy CRC 566F3FBD Accurately ripped (confidence 2) [B3F52E12] Copy OK

Track 31

Filename C:\My Stuff\EACrips\Eddie Vedder and Michael Brook - 2007 - Into The Wild - Oscar cd\31 - Chris Meets The Bear.wav

Peak level 89.0 % Track quality 100.0 % Test CRC 913966ED Copy CRC 913966ED Accurately ripped (confidence 2) [DBE06E28] Copy OK

Track 32

Filename C:\My Stuff\EACrips\Eddie Vedder and Michael Brook - 2007 - Into The Wild - Oscar cd\32 - Driving To The Highway.wav

Peak level 89.0 % Track quality 100.0 % Test CRC 9023CADC Copy CRC 9023CADC Accurately ripped (confidence 2) [49274F16] Copy OK

Track 33

Filename C:\My Stuff\EACrips\Eddie Vedder and Michael Brook - 2007 - Into The Wild - Oscar cd\33 - Where Are They Now .wav

Peak level 89.0 % Track quality 100.0 % Test CRC C1305F01 Copy CRC C1305F01 Accurately ripped (confidence 2) [7328057A] Copy OK

Track 34

Filename C:\My Stuff\EACrips\Eddie Vedder and Michael Brook - 2007 - Into The Wild - Oscar cd\34 - Final Heartbeats.wav

Peak level 89.0 % Track quality 100.0 % Test CRC 935FB6F2 Copy CRC 935FB6F2 Accurately ripped (confidence 2) [FEE53FF4] Copy OK

Track 35

Filename C:\My Stuff\EACrips\Eddie Vedder and Michael Brook - 2007 - Into The Wild - Oscar cd\35 - Dragon Slayer.wav

Peak level 89.0 % Track quality 99.9 % Test CRC E71661C4 Copy CRC E71661C4 Accurately ripped (confidence 2) [F58F05FE] Copy OK

All tracks accurately ripped

No errors occurred

End of status report


Трекер:  [ 20-Дек-2010 15:46 ]

  

Скачать .torrent

Размер .torrent файла 12 KB


Размер: 259 MB
Хэш (hash) релиза: 9a37b426624fed84af226e5232e94a8ab5fb2f3c

Торренты, похожие на Into The Wild В диких условиях скачать торрент

Форум Название Автор Размер S L Добавлен
Саундтреки к фильмам и мультфильмам (mp3) ·· (Score) В диких условиях / Into The Wild (Michael Brook) - 2007 [MP3 320 kbps] Phoenix 131414116125 MB 0 0 1292265130

21:32

13-Дек-10

bot

Топик был перенесен в форум Саундтреки к фильмам и мультфильмам (lossless)

Перенес AqvaGen

Хотите добавить комментарий к записи скачать торрент Into The Wild В диких условиях

!Обратная связь