Скачать через торрент музыку Angelo Badalamenti - Twin Peaks - 1990, FLAC бесплатно без регистрации torrent

Если у вас наблюдаются проблемы со скриншотами, переходом по ссылками, скачиванием торрентов - проблемы в блокировщике рекламы AdBlock. #хорошегоДня!


Статистика раздачи
Размер:  266 MB   |    Зарегистрирован:  6 лет 8 месяцев   |    .torrent скачан:  77 раз   |   
Раздают:  1  
   
Загрузка...
 
Автор Сообщение

FRANKS

avatar FRANKS


Angelo Badalamenti - Soundtrack From Twin Peaks

Жанр: Soundtrack
Год выпуска диска: 1990
Производитель диска: Germany
Аудио кодек: FLAC
Тип рипа: image+.cue
Битрейт аудио: lossless
Продолжительность: 49:50

Трэклист:
1 Twin Peaks Theme (4:45)
2 Laura Palmer's Theme (5:08)
3 Audrey's Dance (5:15)
4 The Nightingale (4:54)
5 Freshly Squeezed (3:48)
6 The Bookhouse Boys (3:24)
7 Into The Night (4:42)
8 Night Life In Twin Peaks (3:23)
9 Dance Of The Dream Man (3:39)
10 Love Theme From Twin Peaks (4:34)
11 Falling (5:18)
 
Доп. информация: Exact Audio Copy V0.99 prebeta 4 from 23. January 2008

EAC extraction logfile from 20. December 2008, 20:35

Angelo Badalamenti / Twin Peaks

Used drive : _NEC DVD_RW ND-4570A Adapter: 1 ID: 0

Read mode : SecureUtilize accurate stream : YesDefeat audio cache : YesMake use of C2 pointers : No

Read offset correction : 48Overread into Lead-In and Lead-Out : NoFill up missing offset samples with silence : YesDelete leading and trailing silent blocks : NoNull samples used in CRC calculations : YesUsed interface : Native Win32 interface for Win NT & 2000

Used output format : User Defined EncoderSelected bitrate : 1024 kBit/sQuality : HighAdd ID3 tag : NoCommand line compressor : C:\Program Files\Exact Audio Copy\FLAC\FLAC.EXEAdditional command line options : -6 -V -T "ARTIST=%a" -T "TITLE=%t" -T "ALBUM=%g" -T "DATE=%y" -T "TRACKNUMBER=%n" -T "GENRE=%m" -T "COMMENT=%e" %s -o %d

TOC of the extracted CD

Track | Start | Length | Start sector | End sector --------------------------------------------------------- 1 | 0:00.00 | 5:06.53 | 0 | 23002 2 | 5:06.53 | 4:52.07 | 23003 | 44909 3 | 9:58.60 | 5:17.50 | 44910 | 68734 4 | 15:16.35 | 4:56.13 | 68735 | 90947 5 | 20:12.48 | 3:48.62 | 90948 | 108109 6 | 24:01.35 | 3:29.40 | 108110 | 123824 7 | 27:31.00 | 4:44.25 | 123825 | 145149 8 | 32:15.25 | 3:27.18 | 145150 | 160692 9 | 35:42.43 | 3:41.62 | 160693 | 177329 10 | 39:24.30 | 5:04.08 | 177330 | 200137 11 | 44:28.38 | 5:21.60 | 200138 | 224272

Range status and errors

Selected range

Filename E:\раздача\Angelo Badalamenti - Soundtrack From Twin Peaks\Angelo Badalamenti - Twin Peaks.wav

Peak level 100.0 % Range quality 100.0 % Test CRC 72DE7723 Copy CRC 72DE7723 Copy OK

No errors occurred

AccurateRip summary

Track 1 accurately ripped (confidence 31) [91513E67]Track 2 accurately ripped (confidence 32) [A1F37661]Track 3 accurately ripped (confidence 33) [77F9C8CA]Track 4 accurately ripped (confidence 33) [01764A23]Track 5 accurately ripped (confidence 33) [862AE8C4]Track 6 accurately ripped (confidence 33) [44DC5A07]Track 7 accurately ripped (confidence 33) [02B553FC]Track 8 accurately ripped (confidence 33) [B0FF7A57]Track 9 accurately ripped (confidence 33) [60B49DE4]Track 10 accurately ripped (confidence 33) [CAE64747]Track 11 accurately ripped (confidence 32) [0D50C586]

All tracks accurately ripped

End of status report


Трекер:  [ 30-Дек-2010 23:03 ]

  

Скачать .torrent

Размер .torrent файла 11 KB


Размер: 266 MB
Хэш (hash) релиза: d3d86ad32c4a3146299e6ab7e18b015399a1a423

Торренты, похожие на Angelo Badalamenti - Twin Peaks - 1990, FLAC скачать торрент

Форум Название Автор Размер S L Добавлен
Саундтреки ·· (Score) Твин Пикс / The Twin Peaks (The Twin Peaks Archive) (by Angelo Badalamenti & David Lynch) {WEB} - 2011 (1990-1992), FLAC (tracks), lossless Galfimbul 26836641982.5 GB 0 0 1356622860

18:41

27-Дек-12

Саундтреки к фильмам и мультфильмам (lossless) ·· (Score / Ambient, Psychedelic, Blues) [LP] [24/96] Твин Пикс / Twin Peaks (by Angelo Badalamenti) - 1990, FLAC (tracks), lossless Galfimbul 1016959853970 MB 2 0 1292268641

22:30

13-Дек-10

bot

Топик был перенесен в форум Саундтреки к фильмам и мультфильмам (lossless)

Перенес FRANKS

Хотите добавить комментарий к записи скачать торрент Angelo Badalamenti - Twin Peaks - 1990, FLAC

!Обратная связь