Скачать через торрент музыку Pulp Fiction Криминальное Чтиво бесплатно без регистрации torrent

Если у вас наблюдаются проблемы со скриншотами, переходом по ссылками, скачиванием торрентов - проблемы в блокировщике рекламы AdBlock. #хорошегоДня!


Статистика раздачи
Размер:  401 MB   |    Зарегистрирован:  6 лет 9 месяцев   |    .torrent скачан:  117 раз   |   
Раздают:  2  
   
Загрузка...
 
Автор Сообщение

AqvaGen


Pulp Fiction / Криминальное Чтиво (Collector's Edition)

Жанр: Soundtrack
Год выпуска диска: 2002
Производитель диска: EU
Аудио кодек: FLAC
Тип рипа: image+.cue
Битрейт аудио: lossless
Продолжительность: 69:40

Трэклист:
01. Tim Roth / Pumpkin and Hunny Bunny/Misirlou [0:02:29.37]
02. Samuel L. Jackson / Royale With Cheese [0:01:45.23]
03. Kool & the Gang / Jungle Boogie [0:03:06.65]
04. Al Green / Let's Stay Together [0:03:17.02]
05. The Tornadoes / Bustin' Surfboards [0:02:28.53]
06. Rick Nelson / Lonesome Town [0:02:15.12]
07. Dusty Springfield / Son of a Preacher Man [0:02:28.00]
08. Maria De Medeiros / Zed's Dead, Baby/Bullwinkle, Pt. 2 [0:02:31.15]
09. Jerome Patrick Hoban / Jack Rabbit Slims Twist Contest/You Never Can Tell [0:03:13.55]
10. Urge Overkill / Girl, You'll Be a Woman Soon [0:03:10.30]
11. Maria McKee / If Love Is a Red Dress (Hang Me in Rags) [0:04:56.65]
12. Peter Green / Bring Out the Gimp/Comanche [0:02:12.18]
13. The Statler Brothers / Flowers on the Wall [0:02:25.22]
14. John Travolta / Personality Goes a Long Way [0:01:02.43]
15. The Lively Ones / Surf Rider [0:03:19.67]
16. Samuel L. Jackson / Ezekiel 25:17 [0:00:53.10]
17. The Robins / Since I First Met You [0:02:19.00]
18. Link Wray & His Wraymen / Rumble [0:02:26.23]
19. The Brothers Johnson / Stawberry Letter #23 [0:04:59.25]
20. The Marketts / Out of Limits [0:02:08.60]
21. Quentin Tarantino / Tarantino Talks! [0:16:10.65]
 
Exact Audio Copy V0.99 prebeta 4 from 23. January 2008

EAC extraction logfile from 7. February 2009, 10:47

Various / Pulp Fiction [Collectors Edition]

Used drive : HL-DT-STDVDRAM_GSA-T20N Adapter: 0 ID: 0

Read mode : SecureUtilize accurate stream : YesDefeat audio cache : YesMake use of C2 pointers : No

Read offset correction : 667Overread into Lead-In and Lead-Out : NoFill up missing offset samples with silence : YesDelete leading and trailing silent blocks : NoNull samples used in CRC calculations : YesUsed interface : Native Win32 interface for Win NT & 2000

Used output format : User Defined EncoderSelected bitrate : 768 kBit/sQuality : HighAdd ID3 tag : NoCommand line compressor : C:\Program Files\Exact Audio Copy\FLAC\FLAC.EXEAdditional command line options : -6 -V -T "ARTIST=%a" -T "TITLE=%t" -T "ALBUM=%g" -T "DATE=%y" -T "TRACKNUMBER=%n" -T "GENRE=%m" -T "COMMENT=%e" %s -o %d

TOC of the extracted CD

Track | Start | Length | Start sector | End sector --------------------------------------------------------- 1 | 0:00.00 | 2:29.37 | 0 | 11211 2 | 2:29.37 | 1:45.23 | 11212 | 19109 3 | 4:14.60 | 3:06.65 | 19110 | 33124 4 | 7:21.50 | 3:17.02 | 33125 | 47901 5 | 10:38.52 | 2:28.53 | 47902 | 59054 6 | 13:07.30 | 2:15.12 | 59055 | 69191 7 | 15:22.42 | 2:28.00 | 69192 | 80291 8 | 17:50.42 | 2:31.15 | 80292 | 91631 9 | 20:21.57 | 3:13.55 | 91632 | 106161 10 | 23:35.37 | 3:10.30 | 106162 | 120441 11 | 26:45.67 | 4:56.65 | 120442 | 142706 12 | 31:42.57 | 2:12.18 | 142707 | 152624 13 | 33:55.00 | 2:25.22 | 152625 | 163521 14 | 36:20.22 | 1:02.43 | 163522 | 168214 15 | 37:22.65 | 3:19.67 | 168215 | 183206 16 | 40:42.57 | 0:53.10 | 183207 | 187191 17 | 41:35.67 | 2:19.00 | 187192 | 197616 18 | 43:54.67 | 2:26.23 | 197617 | 208589 19 | 46:21.15 | 4:59.25 | 208590 | 231039 20 | 51:20.40 | 2:08.60 | 231040 | 240699 21 | 53:29.25 | 16:10.65 | 240700 | 313514

Range status and errors

Selected range

Filename C:\Torrent\Own shares\Soundtrack - Pulp Fiction (Collectors Edition).wav

Peak level 98.8 % Range quality 100.0 % Test CRC 0662F883 Copy CRC 0662F883 Copy OK

No errors occurred

AccurateRip summary

Track 1 accurately ripped (confidence 43) [49E08B0C]Track 2 accurately ripped (confidence 43) [4E577DBE]Track 3 accurately ripped (confidence 44) [8E891086]Track 4 accurately ripped (confidence 44) [240F7CBA]Track 5 accurately ripped (confidence 44) [0A01A87E]Track 6 accurately ripped (confidence 44) [0ED9B647]Track 7 accurately ripped (confidence 44) [FDF1F538]Track 8 accurately ripped (confidence 44) [CDF49A7D]Track 9 accurately ripped (confidence 44) [3B74149F]Track 10 accurately ripped (confidence 45) [120B6EF3]Track 11 accurately ripped (confidence 44) [6DDD90FF]Track 12 accurately ripped (confidence 44) [E7003B4A]Track 13 accurately ripped (confidence 44) [AA86B5A3]Track 14 accurately ripped (confidence 43) [DF6CB37A]Track 15 accurately ripped (confidence 44) [913EBAC0]Track 16 accurately ripped (confidence 44) [EF1CF833]Track 17 accurately ripped (confidence 44) [E095D1B1]Track 18 accurately ripped (confidence 44) [585B438E]Track 19 accurately ripped (confidence 44) [ED3B7149]Track 20 accurately ripped (confidence 44) [098D6DAD]Track 21 accurately ripped (confidence 37) [D1A751EC]

All tracks accurately ripped

End of status report


Трекер:  [ 20-Дек-2010 16:13 ]

  

Скачать .torrent

Размер .torrent файла 16 KB


Размер: 401 MB
Хэш (hash) релиза: 10f3bc1e98d2ae2fc9afbbb505f8d43fea7d2a9b

Торренты, похожие на Pulp Fiction Криминальное Чтиво скачать торрент

Форум Название Автор Размер S L Добавлен
Собственные оцифровки ·· (Surf, Rock & Roll, Dialogue, Soul, Soundtrack, Funk) Pulp Fiction (Криминальное Чтиво) OST - 1994 [LP][24/96] FLAC Mos 772179343736 MB 0 0 1294848804

19:13

12-Янв-11

Саундтреки к фильмам и мультфильмам (lossless) ·· (Soundtrack) Криминальное чтиво / Pulp Fiction - 1994, APE (image + .cue), lossless Galfimbul 263559231251 MB 0 0 1497044910

00:48

10-Июн-17

Саундтреки к фильмам и мультфильмам (lossless) ·· (Soundtrack) Криминальное Чтиво / Pulp Fiction (Japan CD) - 1994, FLAC (image+.cue), lossless Galfimbul 234104521223 MB 0 0 1466448164

21:42

20-Июн-16

Собственные оцифровки ·· (Soundtrack) Криминальное чтиво / Pulp Fiction (180 Gram Vinyl Remastered) - 1994, APE (image+.cue), lossless Galfimbul 783752203747 MB 0 0 1292268490

22:28

13-Дек-10

Саундтреки к фильмам и мультфильмам (lossless) ·· (Soundtrack) Криминальное чтиво / Pulp Fiction - 1994, APE (image + .cue), lossless AqvaGen 263559231251 MB 0 0 1292268478

22:27

13-Дек-10

Саундтреки к фильмам и мультфильмам (mp3) ·· (Soundtrack) Криминальное чтиво / Pulp Fiction. Music From The Motion Picture. Collector's Edition - 2009, MP3 (tracks), 320 kbps Phoenix 167286784160 MB 0 0 1292264982

21:29

13-Дек-10

bot

Топик был перенесен в форум Саундтреки к фильмам и мультфильмам (lossless)

Перенес AqvaGen

Хотите добавить комментарий к записи скачать торрент Pulp Fiction Криминальное Чтиво

!Обратная связь