Скачать через торрент музыку Decibel Outdoor Festival 2012 бесплатно без регистрации torrent

Если у вас наблюдаются проблемы со скриншотами, переходом по ссылками, скачиванием торрентов - проблемы в блокировщике рекламы AdBlock. #хорошегоДня!


Статистика раздачи
Размер:  7.65 GB   |    Зарегистрирован:  4 года 6 месяцев   |    .torrent скачан:  41 раз   |   
Раздают:  1  
   
Загрузка...
 
Автор Сообщение

Galfimbul

avatar Galfimbul


Decibel Outdoor Festival 2012 (The Registration)

Жанр: Hardstyle, Hardcore
Продолжительность: 01:51:34
Год выпуска: 2012

Описание: Decibel - один из крупнейших фестивалей тяжёлой электронной музыки, организованный B2S.
Музыка, солнце, пляж...

Доп. информация: Навигация по главам.

Качество: BDRip 1080p
Контейнер: MKV
Видео кодек: H.264
Аудио кодек: AC3
Видео: MPEG4 AVC, 1920x1080, 16:9, 25 fps, ~9 821 Kbps
Аудио: English (AC3, 6 ch, 48 KHz, 448 Кбит/с)
Duration : 1h 51mnOverall bit rate : 9 821 KbpsEncoded date : UTC 2012-12-16 13:16:24Writing application : mkvmerge v4.4.0 ('Die Wiederkehr') gemaakt op Oct 31 2010 21:52:48Writing library : libebml v1.0.0 + libmatroska v1.0.0

VideoID : 1Format : AVCFormat/Info : Advanced Video CodecFormat profile : High@L4.1Format settings, CABAC : YesFormat settings, ReFrames : 4 framesMuxing mode : Header strippingCodec ID : V_MPEG4/ISO/AVCDuration : 1h 51mnBit rate : 9 373 KbpsWidth : 1 920 pixelsHeight : 1 080 pixelsDisplay aspect ratio : 16:9Frame rate : 25.000 fpsColor space : YUVChroma subsampling : 4:2:0Bit depth : 8 bitsScan type : ProgressiveBits/(Pixel*Frame) : 0.181Stream size : 7.15 GiB (93%)Title : EnglishWriting library : x264 core 129 r2230 1cffe9fEncoding settings : cabac=1 / ref=4 / deblock=1:0:0 / analyse=0x3:0x133 / me=umh / subme=7 / psy=1 / psy_rd=1.00:0.00 / mixed_ref=1 / me_range=16 / chroma_me=1 / trellis=1 / 8x8dct=1 / cqm=0 / deadzone=21,11 / fast_pskip=1 / chroma_qp_offset=-2 / threads=6 / lookahead_threads=1 / sliced_threads=0 / nr=0 / decimate=1 / interlaced=0 / bluray_compat=0 / constrained_intra=0 / bframes=3 / b_pyramid=2 / b_adapt=2 / b_bias=0 / direct=3 / weightb=1 / open_gop=0 / weightp=2 / keyint=250 / keyint_min=25 / scenecut=40 / intra_refresh=0 / rc=2pass / mbtree=0 / bitrate=9373 / ratetol=1.0 / qcomp=0.60 / qpmin=0 / qpmax=69 / qpstep=4 / cplxblur=20.0 / qblur=0.5 / ip_ratio=1.40 / pb_ratio=1.30 / aq=1:1.00Language : EnglishDefault : YesForced : No

AudioID : 2Format : AC-3Format/Info : Audio Coding 3Mode extension : CM (complete main)Muxing mode : Header strippingCodec ID : A_AC3Duration : 1h 51mnBit rate mode : ConstantBit rate : 448 KbpsChannel(s) : 6 channelsChannel positions : Front: L C R, Side: L R, LFESampling rate : 48.0 KHzBit depth : 16 bitsCompression mode : LossyStream size : 357 MiB (5%)Title : EnglishLanguage : EnglishDefault : YesForced : No

Menu00:00:00.000 : en:00:00:00.00000:02:21.760 : en:00:02:21.76000:12:16.720 : en:00:12:16.72000:23:15.000 : en:00:23:15.00000:34:52.160 : en:00:34:52.16000:42:43.000 : en:00:42:43.00000:49:28.440 : en:00:49:28.44000:59:43.680 : en:00:59:43.68001:11:50.080 : en:01:11:50.08001:21:07.680 : en:01:21:07.68001:32:07.200 : en:01:32:07.200


Трекер:  [ 19-Мар-2013 17:28 ]

  

Скачать .torrent

Размер .torrent файла 38 KB


Размер: 7.65 GB
Хэш (hash) релиза: aa5d16a4588d4818fba0f1f5544d9effe64ddea8

Еще никто не оставлял запись к записи скачать торрент Decibel Outdoor Festival 2012 . Будь первым!

!Обратная связь