Скачать через торрент музыку Hurts - Heitere Open Air бесплатно без регистрации torrent

Если у вас наблюдаются проблемы со скриншотами, переходом по ссылками, скачиванием торрентов - проблемы в блокировщике рекламы AdBlock. #хорошегоДня!


Статистика раздачи
Размер:  617 MB   |    Зарегистрирован:  4 года 7 месяцев   |    .torrent скачан:  33 раза   |   
Раздают:  1  
   
Загрузка...
 
Автор Сообщение

Galfimbul

avatar Galfimbul


Hurts - Heitere Open Air

Жанр: Synthpop, Pop
Продолжительность: 00:12:52
Год выпуска: 2012

Описание: Всего 3 песни из выступления Hurts на Heitere Open Air
Tracklist:
1. Wonderful Life
2. Illuminated
3. Stay

Качество: HDTVRip 720p
Контейнер: MKV
Видео кодек: H.264
Аудио кодек: AC3
Видео: AVC, 1272x720, 16:9, 6119 Kbps, 50 fps
Аудио: AC3, 448 Kbps. 48 kHz. 6 ch
GeneralUnique ID : 235925652025164564075536682465008781177 (0xB17DA0B6BE2C140B1F51C20712D38779)Complete name : K:\Hurts-wonderful_life_bw_illuminated_bw_stay_(heitere_open_air_2012)-720p-x264-2012-uva\Hurts-wonderful_life_bw_illuminated_bw_stay_(heitere_open_air_2012)-720p-x264-2012-uva.mkvFormat : MatroskaFormat version : Version 4 / Version 2File size : 617 MiBDuration : 12mn 52sOverall bit rate : 6 700 KbpsEncoded date : UTC 2010-02-22 21:41:31Writing application : mkvmerge v5.9.0 ('On The Loose') built on Dec 9 2012 15:48:35Writing library : libebml v1.3.0 + libmatroska v1.4.0

VideoID : 1Format : AVCFormat/Info : Advanced Video CodecFormat profile : High@L4.1Format settings, CABAC : YesFormat settings, ReFrames : 5 framesCodec ID : V_MPEG4/ISO/AVCDuration : 12mn 52sBit rate : 6 119 KbpsWidth : 1 272 pixelsHeight : 720 pixelsDisplay aspect ratio : 16:9Original display aspect ratio : 16:9Frame rate : 50.000 fpsColor space : YUVChroma subsampling : 4:2:0Bit depth : 8 bitsScan type : ProgressiveBits/(Pixel*Frame) : 0.134Stream size : 563 MiB (91%)Writing library : x264 core 129 r2245 bc13772Encoding settings : cabac=1 / ref=5 / deblock=1:0:0 / analyse=0x3:0x113 / me=umh / subme=9 / psy=1 / psy_rd=1.00:0.00 / mixed_ref=1 / me_range=24 / chroma_me=1 / trellis=1 / 8x8dct=1 / cqm=0 / deadzone=21,11 / fast_pskip=1 / chroma_qp_offset=-2 / threads=6 / lookahead_threads=1 / sliced_threads=0 / nr=0 / decimate=1 / interlaced=0 / bluray_compat=0 / constrained_intra=0 / bframes=16 / b_pyramid=2 / b_adapt=1 / b_bias=0 / direct=1 / weightb=1 / open_gop=0 / weightp=2 / keyint=250 / keyint_min=25 / scenecut=40 / intra_refresh=0 / rc_lookahead=40 / rc=crf / mbtree=1 / crf=20.0 / qcomp=0.60 / qpmin=0 / qpmax=69 / qpstep=4 / ip_ratio=1.40 / aq=1:1.00Default : YesForced : Yes

AudioID : 2Format : AC-3Format/Info : Audio Coding 3Mode extension : CM (complete main)Format settings, Endianness : BigCodec ID : A_AC3Duration : 12mn 52sBit rate mode : ConstantBit rate : 448 KbpsChannel(s) : 6 channelsChannel positions : Front: L C R, Side: L R, LFESampling rate : 48.0 KHzBit depth : 16 bitsCompression mode : LossyDelay relative to video : 15msStream size : 41.2 MiB (7%)Default : YesForced : Yes


Трекер:  [ 19-Мар-2013 17:28 ]

  

Скачать .torrent

Размер .torrent файла 12 KB


Размер: 617 MB
Хэш (hash) релиза: ccddfb6062deea109801e8734ed9b526f4031934

Еще никто не оставлял запись к записи скачать торрент Hurts - Heitere Open Air . Будь первым!

!Обратная связь