Скачать через торрент музыку Malker - Apocalispis бесплатно без регистрации torrent

Если у вас наблюдаются проблемы со скриншотами, переходом по ссылками, скачиванием торрентов - проблемы в блокировщике рекламы AdBlock. #хорошегоДня!


Статистика раздачи
Размер:  90 MB   |    Зарегистрирован:  4 года 7 месяцев   |    .torrent скачан:  24 раза   |   
Раздают:  1  
   
Загрузка...
 
Автор Сообщение

Galfimbul

avatar Galfimbul


Malker - Apocalispis

Жанр: Trance
Продолжительность: 1:47
Год выпуска: 2012

Описание: Тизер к треку Malker - Night in Ibiza

Качество: HDTV 720p
Контейнер: WMV
Видео: Windows Media Video 9 1440x1080 (16:9) 29.97fps 8196kbps
Аудио: Windows Media Audio 48000Hz stereo 192kbps
GeneralComplete name : D:\Kerim\Dj Program\MALKER\Malker - Apocalipsis\Malker - Apocalispis.wmvFormat : Windows MediaFile size : 90.4 MiBDuration : 1mn 47sOverall bit rate mode : ConstantOverall bit rate : 7 053 KbpsMaximum Overall bit rate : 8 454 KbpsEncoded date : UTC 2012-08-09 16:25:14.308SfOriginalFPS : 299700

VideoID : 2Format : VC-1Format profile : MP@HLCodec ID : WMV3Codec ID/Info : Windows Media Video 9Codec ID/Hint : WMV3Description of the codec : Windows Media Video 9 - ProfessionalDuration : 1mn 47sBit rate mode : ConstantBit rate : 8 197 KbpsWidth : 1 440 pixelsHeight : 1 080 pixelsDisplay aspect ratio : 4:3Frame rate : 29.970 fpsBit depth : 8 bitsScan type : ProgressiveCompression mode : LossyBits/(Pixel*Frame) : 0.176Stream size : 105 MiBLanguage : Russian

AudioID : 1Format : WMAFormat version : Version 2Codec ID : 161Codec ID/Info : Windows Media AudioDescription of the codec : Windows Media Audio 9.2 - 192 kbps, 48 kHz, stereo (A/V) 1-pass CBRDuration : 1mn 47sBit rate mode : ConstantBit rate : 192 KbpsChannel(s) : 2 channelsSampling rate : 48.0 KHzBit depth : 16 bitsStream size : 2.46 MiB (3%)Language : Russian


Трекер:  [ 19-Мар-2013 17:28 ]

  

Скачать .torrent

Размер .torrent файла 14 KB


Размер: 90 MB
Хэш (hash) релиза: d13eb7407eaaaf4bb1cf381aa34fb5707950120e

Еще никто не оставлял запись к записи скачать торрент Malker - Apocalispis . Будь первым!

!Обратная связь