Скачать через торрент музыку Inna - More Than Friends бесплатно без регистрации torrent

Если у вас наблюдаются проблемы со скриншотами, переходом по ссылками, скачиванием торрентов - проблемы в блокировщике рекламы AdBlock. #хорошегоДня!


Статистика раздачи
Размер:  479 MB   |    Зарегистрирован:  4 года 6 месяцев   |    .torrent скачан:  45 раз   |   
Раздают:  1  
   
Загрузка...
 
Автор Сообщение

Galfimbul

avatar Galfimbul


Inna - More Than Friends
[b]Жанр: Pop, Dance
Продолжительность: 00:03:24
Год выпуска: 2012
[/b]
[b]Качество: HDTV 1080p
Контейнер: MPEG-PS
Видео кодек: MPEG2
Аудио кодек: AC3
Видео: 1920x800, 25.000 fps, 16:9, ~ 18.8 Mbps
Аудио: AC3, 2(ch) Front: L R, 48,0 kHz, 384 kbps
[/b]
Релиз:
General
Полное имя : D:\новая папка\Inna - More Than Friends. 1080p.mpg
Формат : MPEG-PS
Размер файла : 479 MiB
Продолжительность : 3mn 24s
Режим общего битрейта : Variable
Общий поток : 19.6 Mbps

Video
Идентификатор : 224 (0xE0)
Формат : MPEG Video
Версия формата : Version 2
Профиль формата : Main@High
Параметр BVOP формата : Yes
Параметр матрицы формата : Default
Параметр GOP формата : M=4, N=12
Продолжительность : 3mn 21s
Вид битрейта : Variable
Битрейт : 18.8 Mbps
Ширина : 1 920 pixels
Высота : 800 pixels
Соотношение сторон : 2.40:1
Частота кадров : 25.000 fps
Цветовое пространство : YUV
Субдискретизация насыщенности : 4:2:0
Битовая глубина : 8 bits
Тип развёртки : Progressive
Метод сжатия : Lossy
Бит/(Пиксели*Кадры) : 0.490
Размер потока : 453 MiB (95%)

Audio
Идентификатор : 189 (0xBD)-128 (0x80)
Формат : AC-3
Формат/Информация : Audio Coding 3
Расширение режима : CM (complete main)
Параметр Endianness формата : Big
Режим смешивания : DVD-Video
Продолжительность : 3mn 24s
Вид битрейта : Constant
Битрейт : 384 Kbps
Каналы : 2 channels
Расположение каналов : Front: L R
Частота : 48.0 KHz
Битовая глубина : 16 bits
Метод сжатия : Lossy
Задержка видео : -80ms
Размер потока : 9.38 MiB (2%)


Трекер:  [ 19-Мар-2013 17:28 ]

  

Скачать .torrent

Размер .torrent файла 19 KB


Размер: 479 MB
Хэш (hash) релиза: 90d94b11eca0a118d28acc61cfdb1ae5c63f8705

Торренты, похожие на Inna - More Than Friends скачать торрент

Форум Название Автор Размер S L Добавлен
Электронная музыка (video) ·· Inna - More Than Friends [2013, Pop, Dance, Master] Galfimbul 980985856936 MB 0 0 1388311233

13:00

29-Дек-13

Электронная музыка (video) ·· Inna Feat. Daddy Yankee - More Than Friends [2013, Pop, Dance, Master] Galfimbul 16019586551.49 GB 0 0 1388311232

13:00

29-Дек-13

Еще никто не оставлял запись к записи скачать торрент Inna - More Than Friends . Будь первым!

!Обратная связь