Скачать через торрент музыку Depeche Mode - Heaven бесплатно без регистрации torrent

Если у вас наблюдаются проблемы со скриншотами, переходом по ссылками, скачиванием торрентов - проблемы в блокировщике рекламы AdBlock. #хорошегоДня!


Статистика раздачи
Размер:  319 MB   |    Зарегистрирован:  4 года 7 месяцев   |    .torrent скачан:  33 раза   |   
Раздают:  1  
   
Загрузка...
 
Автор Сообщение

Galfimbul

avatar Galfimbul


Depeche Mode - Heaven
[i]Жанр: Synthpop
Продолжительность: 00:03:59
Год выпуска: 2013
Complete name : Depeche Mode - Heaven.tsFormat : MPEG-TSFile size : 319 MiBDuration : 3mn 59sOverall bit rate mode : VariableOverall bit rate : 11.2 Mbps

VideoID : 561 (0x231)Menu ID : 306 (0x132)Format : AVCFormat/Info : Advanced Video CodecFormat profile : High@L4.0Format settings, CABAC : YesFormat settings, ReFrames : 3 framesCodec ID : 27Duration : 3mn 59sBit rate : 10.2 MbpsWidth : 1 920 pixelsHeight : 1 080 pixelsDisplay aspect ratio : 16:9Frame rate : 25.000 fpsStandard : ComponentColor space : YUVChroma subsampling : 4:2:0Bit depth : 8 bitsScan type : InterlacedScan order : Top Field FirstBits/(Pixel*Frame) : 0.197Stream size : 292 MiB (92%)Color primaries : BT.601 PALTransfer characteristics : BT.470 System B, BT.470 System GMatrix coefficients : BT.601

AudioID : 562 (0x232)Menu ID : 306 (0x132)Format : AC-3Format/Info : Audio Coding 3Mode extension : CM (complete main)Format settings, Endianness : BigCodec ID : 6Duration : 3mn 59sBit rate mode : ConstantBit rate : 384 KbpsChannel(s) : 2 channelsChannel positions : Front: L RSampling rate : 48.0 KHzBit depth : 16 bitsCompression mode : LossyDelay relative to video : 24msStream size : 11.0 MiB (3%)Language : French


Трекер:  [ 19-Мар-2013 17:28 ]

  

Скачать .torrent

Размер .torrent файла 13 KB


Размер: 319 MB
Хэш (hash) релиза: aa2a5d4a7d7680c0068197a3cddf80f017970141

Торренты, похожие на Depeche Mode - Heaven скачать торрент

Форум Название Автор Размер S L Добавлен
Электронная музыка (lossless) ·· (Synthpop) Depeche Mode - Heaven (CD Single) - 2013, FLAC (image+.cue), lossless L 4928922347 MB 0 0 1361799325

16:35

25-Фев-13

Электронная музыка (lossless) ·· (Synthpop) Depeche Mode - Heaven (CD Maxi-Single) - 2013, FLAC (image+.cue), lossless L 178350125170 MB 0 0 1361799320

16:35

25-Фев-13

Еще никто не оставлял запись к записи скачать торрент Depeche Mode - Heaven . Будь первым!

!Обратная связь