Скачать через торрент музыку Example - Live At Gurtenfestival бесплатно без регистрации torrent

Если у вас наблюдаются проблемы со скриншотами, переходом по ссылками, скачиванием торрентов - проблемы в блокировщике рекламы AdBlock. #хорошегоДня!


Статистика раздачи
Размер:  802 MB   |    Зарегистрирован:  4 года 7 месяцев   |    .torrent скачан:  42 раза   |   
Раздают:  1  
   
Загрузка...
 
Автор Сообщение

Galfimbul

avatar Galfimbul


Example - Live At Gurtenfestival

Жанр: Electro, Dubstep, Grime, Hip-Hop
Продолжительность: 00:22:56
Год выпуска: 2012

Треклист:
01. Watch The Sun Come Up
02. Kickstarts
03. We'll Be Coming Back
04. Natural Disaster
05. Changed The Way You Kiss Me

Качество: HDTVRip 720p
Контейнер: MKV
Видео кодек: H.264
Аудио кодек: AC3
Видео: AVC, 1272x720, 16:9, 4340 Kbps, 50 fps
Аудио: AC3, 448 Kbps, 48 KHz, 6 ch
GeneralUnique ID : 75448246097720042889539509432187516419 (0x38C2CDBB6C7BA51E5D722F0163067603)Complete name : E:\Example-gurtenfestival_(2012)-720p-x264-2013-uva\Example-gurtenfestival_(2012)-720p-x264-2013-uva.mkvFormat : MatroskaFormat version : Version 4 / Version 2File size : 802 MiBDuration : 22mn 56sOverall bit rate : 4 886 KbpsEncoded date : UTC 2013-02-18 12:18:28Writing application : mkvmerge v6.0.0 ('Coming Up For Air') built on Jan 20 2013 10:36:39Writing library : libebml v1.3.0 + libmatroska v1.4.0

VideoID : 1Format : AVCFormat/Info : Advanced Video CodecFormat profile : High@L4.1Format settings, CABAC : YesFormat settings, ReFrames : 5 framesCodec ID : V_MPEG4/ISO/AVCDuration : 22mn 56sBit rate : 4 340 KbpsWidth : 1 272 pixelsHeight : 720 pixelsDisplay aspect ratio : 16:9Original display aspect ratio : 16:9Frame rate : 50.000 fpsColor space : YUVChroma subsampling : 4:2:0Bit depth : 8 bitsScan type : ProgressiveBits/(Pixel*Frame) : 0.095Stream size : 712 MiB (89%)Writing library : x264 core 129 r2245 bc13772Encoding settings : cabac=1 / ref=5 / deblock=1:0:0 / analyse=0x3:0x113 / me=umh / subme=9 / psy=1 / psy_rd=1.00:0.00 / mixed_ref=1 / me_range=24 / chroma_me=1 / trellis=1 / 8x8dct=1 / cqm=0 / deadzone=21,11 / fast_pskip=1 / chroma_qp_offset=-2 / threads=6 / lookahead_threads=1 / sliced_threads=0 / nr=0 / decimate=1 / interlaced=0 / bluray_compat=0 / constrained_intra=0 / bframes=16 / b_pyramid=2 / b_adapt=1 / b_bias=0 / direct=1 / weightb=1 / open_gop=0 / weightp=2 / keyint=250 / keyint_min=25 / scenecut=40 / intra_refresh=0 / rc_lookahead=40 / rc=crf / mbtree=1 / crf=20.0 / qcomp=0.60 / qpmin=0 / qpmax=69 / qpstep=4 / ip_ratio=1.40 / aq=1:1.00Default : YesForced : Yes

AudioID : 2Format : AC-3Format/Info : Audio Coding 3Mode extension : CM (complete main)Format settings, Endianness : BigCodec ID : A_AC3Duration : 22mn 56sBit rate mode : ConstantBit rate : 448 KbpsChannel(s) : 6 channelsChannel positions : Front: L C R, Side: L R, LFESampling rate : 48.0 KHzBit depth : 16 bitsCompression mode : LossyDelay relative to video : 5msStream size : 73.5 MiB (9%)Default : YesForced : Yes


Трекер:  [ 19-Мар-2013 17:28 ]

  

Скачать .torrent

Размер .torrent файла 16 KB


Размер: 802 MB
Хэш (hash) релиза: e92a68a386f8fef136bdd42dc99a664c5e70bad0

Еще никто не оставлял запись к записи скачать торрент Example - Live At Gurtenfestival . Будь первым!

!Обратная связь