Скачать через торрент музыку Убить Билла Kill Bill - Volume 1, 2 бесплатно без регистрации torrent

Если у вас наблюдаются проблемы со скриншотами, переходом по ссылками, скачиванием торрентов - проблемы в блокировщике рекламы AdBlock. #хорошегоДня!


Статистика раздачи
Размер:  537 MB   |    Зарегистрирован:  6 лет 9 месяцев   |    .torrent скачан:  97 раз   |   
Раздают:  1  
   
Загрузка...
 
Автор Сообщение

AqvaGen


Убить Билла / Kill Bill - Volume 1,2

Жанр: Soundtrack
Год выпуска диска: 2005
Производитель диска: France
Аудио кодек: FLAC
Тип рипа: image+.cue
Битрейт аудио: lossless
Продолжительность: 47:13 + 46:21
1. Bang Bang (My Baby Shot Me Down) - Nancy Sinatra - 2:40
2. That Certain Female - Charlie Feathers - 3:03
3. The Grand Duel - (Parte Prima) - Luis Enrique Bacalov - 3:25
4. Twisted Nerve - Bernard Herrmann - 1:28
5. Queen of the Crime Council - Julie Dreyfus - 0:57
6. Ode to Oren Ishii - RZA - 2:06
7. Run Fay Fun - Isaac Hayes - 2:47
8. Green Hornet - Al Hirt - 2:18
9. Battle Without Honor or Humanity - Tomoyasu Hotei - 2:29
10. Don't Let Me Be Misunderstood - Santa Esmeralda - 10:30
11. Woo Hoo - 5.6.7.8's - 1:59
12. Crane-White Lightning - RZA - 1:38
13. The Flower of Carnage - Meiko Kaji - 3:52
14. The Lonely Shepherd - Zamfir - 4:21
15. You're My Wicked Life - David Carradine - 1:14
16. Ironside - Quincy Jones - 0:16
17. Super 16 - NEU! - 1:06
18. Yakuza Oren 1 - RZA - 0:23
19. Banister Fight - RZA - 0:21
20. Flip Sting - 0:04
21. Sword Swings - 0:06
22. Axe Throws - 0:09
 
Exact Audio Copy V0.99 prebeta 4 from 23. January 2008

EAC extraction logfile from 9. September 2009, 17:19

Various / Kill Bill - Volume 1 - Soundtrack

Used drive : Optiarc DVD RW AD-7203A Adapter: 0 ID: 0

Read mode : SecureUtilize accurate stream : YesDefeat audio cache : YesMake use of C2 pointers : No

Read offset correction : 48Overread into Lead-In and Lead-Out : NoFill up missing offset samples with silence : YesDelete leading and trailing silent blocks : NoNull samples used in CRC calculations : NoUsed interface : Native Win32 interface for Win NT & 2000

Used output format : User Defined EncoderSelected bitrate : 768 kBit/sQuality : HighAdd ID3 tag : NoCommand line compressor : C:\Program Files\Exact Audio Copy\FLAC\FLAC.EXEAdditional command line options : -8 -V %s

TOC of the extracted CD

Track | Start | Length | Start sector | End sector --------------------------------------------------------- 1 | 0:00.00 | 2:40.33 | 0 | 12032 2 | 2:40.33 | 3:02.69 | 12033 | 25751 3 | 5:43.27 | 3:24.58 | 25752 | 41109 4 | 9:08.10 | 1:27.50 | 41110 | 47684 5 | 10:35.60 | 0:57.03 | 47685 | 51962 6 | 11:32.63 | 2:05.72 | 51963 | 61409 7 | 13:38.60 | 2:46.59 | 61410 | 73918 8 | 16:25.44 | 2:18.18 | 73919 | 84286 9 | 18:43.62 | 2:28.63 | 84287 | 95449 10 | 21:12.50 | 10:30.25 | 95450 | 142724 11 | 31:43.00 | 1:59.29 | 142725 | 151678 12 | 33:42.29 | 1:37.54 | 151679 | 159007 13 | 35:20.08 | 3:52.27 | 159008 | 176434 14 | 39:12.35 | 4:20.56 | 176435 | 195990 15 | 43:33.16 | 1:14.28 | 195991 | 201568 16 | 44:47.44 | 0:16.39 | 201569 | 202807 17 | 45:04.08 | 1:06.05 | 202808 | 207762 18 | 46:10.13 | 0:22.50 | 207763 | 209462 19 | 46:32.63 | 0:21.16 | 209463 | 211053 20 | 46:54.04 | 0:04.49 | 211054 | 211402 21 | 46:58.53 | 0:05.52 | 211403 | 211829 22 | 47:04.30 | 0:09.06 | 211830 | 212510 23 | 49:45.36 | 9:36.04 | 223911 | 267114

Range status and errors

Selected range

Filename C:\Documents and Settings\Viktor\Мои документы\Моя музыка\Various - Kill Bill - Volume 1 - Soundtrack.wav

Peak level 100.0 % Range quality 99.9 % Test CRC 11232029 Copy CRC 11232029 Copy OK

No errors occurred

AccurateRip summary

Track 1 accurately ripped (confidence 3) [62CA7D7A]Track 2 accurately ripped (confidence 3) [C2FE78FC]Track 3 accurately ripped (confidence 3) [C7B3063B]Track 4 accurately ripped (confidence 3) [4DE82F5C]Track 5 accurately ripped (confidence 3) [829B121B]Track 6 accurately ripped (confidence 3) [74993EA0]Track 7 accurately ripped (confidence 3) [27AFC101]Track 8 accurately ripped (confidence 3) [A494FA63]Track 9 accurately ripped (confidence 3) [9021CFDA]Track 10 accurately ripped (confidence 3) [BFD10A60]Track 11 accurately ripped (confidence 3) [46FB931B]Track 12 accurately ripped (confidence 3) [553113EC]Track 13 accurately ripped (confidence 3) [FB0243F0]Track 14 accurately ripped (confidence 3) [2D8C72C9]Track 15 accurately ripped (confidence 3) [9B712BC0]Track 16 accurately ripped (confidence 3) [6131EBE7]Track 17 accurately ripped (confidence 3) [A8EA86CC]Track 18 accurately ripped (confidence 3) [C44258BB]Track 19 accurately ripped (confidence 3) [BFDB5096]Track 20 not present in databaseTrack 21 not present in databaseTrack 22 accurately ripped (confidence 3) [71A6D371]

20 track(s) accurately ripped 2 track(s) not present in the AccurateRip database

Some tracks could not be verified as accurate

End of status report
1."A Few Words from the Bride" - Uma Thurman - 0:43
2."Goodnight Moon" - Shivaree - 4:04
3."Il Tramonto" - Ennio Morricone - 1:15
4."Can't Hardly Stand It" - Charlie Feathers - 2:48
5."Tu Mira (Edit)" - Lole Y Manuel - 4:00
6."Summertime Killer" - Luis Bacalov - 3:40
7."The Chase" - Alan Reeves, Phil Steele and Philip Brigham - 1:03
8."The Legend of Pai Mei" - David Carradine and Uma Thurman - 2:06
9."L'Arena" - Ennio Morricone - 4:46
10."A Satisfied Mind" - Johnny Cash - 2:50
11."A Silhouette of Doom" - Ennio Morricone - 2:55
12."About Her" - Malcolm McLaren - 4:50
13."Truly and Utterly Bill" - David Carradine and Uma Thurman - 0:47
14."Malaguena Salerosa" - Chingon - 4:06
15."Urami Bushi" - Meiko Kaji - 6:28
 
Exact Audio Copy V0.99 prebeta 4 from 23. January 2008

EAC extraction logfile from 9. September 2009, 18:04

Various / Kill Bill - Volume 2 (Soundtrack)

Used drive : Optiarc DVD RW AD-7203A Adapter: 0 ID: 0

Read mode : SecureUtilize accurate stream : YesDefeat audio cache : YesMake use of C2 pointers : No

Read offset correction : 48Overread into Lead-In and Lead-Out : NoFill up missing offset samples with silence : YesDelete leading and trailing silent blocks : NoNull samples used in CRC calculations : NoUsed interface : Native Win32 interface for Win NT & 2000

Used output format : User Defined EncoderSelected bitrate : 768 kBit/sQuality : HighAdd ID3 tag : NoCommand line compressor : C:\Program Files\Exact Audio Copy\FLAC\FLAC.EXEAdditional command line options : -8 -V %s

TOC of the extracted CD

Track | Start | Length | Start sector | End sector --------------------------------------------------------- 1 | 0:00.00 | 0:42.47 | 0 | 3196 2 | 0:42.47 | 4:03.63 | 3197 | 21484 3 | 4:46.35 | 1:15.10 | 21485 | 27119 4 | 6:01.45 | 2:48.12 | 27120 | 39731 5 | 8:49.57 | 4:00.38 | 39732 | 57769 6 | 12:50.20 | 3:39.51 | 57770 | 74245 7 | 16:29.71 | 1:03.02 | 74246 | 78972 8 | 17:32.73 | 2:06.39 | 78973 | 88461 9 | 19:39.37 | 4:46.01 | 88462 | 109912 10 | 24:25.38 | 2:50.36 | 109913 | 122698 11 | 27:15.74 | 2:54.46 | 122699 | 135794 12 | 30:10.45 | 4:49.74 | 135795 | 157543 13 | 35:00.44 | 0:47.13 | 157544 | 161081 14 | 35:47.57 | 4:05.63 | 161082 | 179519 15 | 39:53.45 | 6:27.54 | 179520 | 208598

Range status and errors

Selected range

Filename C:\Documents and Settings\Viktor\Мои документы\Моя музыка\Kill Bill - Volume 1,2 - Soundtrack\Kill Bill - Volume 2 - Soundtrack\Various - Kill Bill - Volume 2 (Soundtrack).wav

Peak level 100.0 % Range quality 100.0 % Test CRC 831AD29F Copy CRC 831AD29F Copy OK

No errors occurred

AccurateRip summary

Track 1 accurately ripped (confidence 4) [28381A3D]Track 2 accurately ripped (confidence 4) [CFC31C52]Track 3 accurately ripped (confidence 4) [894E25AD]Track 4 accurately ripped (confidence 4) [32E8CE32]Track 5 accurately ripped (confidence 4) [F96509BF]Track 6 accurately ripped (confidence 4) [339E7CB9]Track 7 accurately ripped (confidence 4) [4C7C4EE5]Track 8 accurately ripped (confidence 4) [EA88E9F0]Track 9 accurately ripped (confidence 4) [26A4DC47]Track 10 accurately ripped (confidence 4) [4A88281C]Track 11 accurately ripped (confidence 4) [A8B35B2D]Track 12 accurately ripped (confidence 4) [B0B5AC7D]Track 13 accurately ripped (confidence 4) [4F664A53]Track 14 accurately ripped (confidence 4) [E1C1FC47]Track 15 accurately ripped (confidence 4) [56A065D2]

All tracks accurately ripped

End of status report


Трекер:  [ 20-Дек-2010 16:19 ]

  

Скачать .torrent

Размер .torrent файла 11 KB


Размер: 537 MB
Хэш (hash) релиза: 6cd5873cc0f8a70515e0ea733957221b02bae833

bot

Топик был перенесен в форум Саундтреки к фильмам и мультфильмам (lossless)

Перенес AqvaGen

Хотите добавить комментарий к записи скачать торрент Убить Билла Kill Bill - Volume 1, 2

!Обратная связь