Скачать через торрент музыку Шерлок Холмс Sherlock Holmes бесплатно без регистрации torrent

Если у вас наблюдаются проблемы со скриншотами, переходом по ссылками, скачиванием торрентов - проблемы в блокировщике рекламы AdBlock. #хорошегоДня!


Статистика раздачи
Размер:  256 MB   |    Зарегистрирован:  6 лет 10 месяцев   |    .torrent скачан:  63 раза   |   
Раздают:  1  
   
Загрузка...
 
Автор Сообщение

AqvaGen


Шерлок Холмс / Sherlock Holmes
Music by Hans Zimmer




Жанр: Score
Год выпуска диска: 2009
Производитель диска: Watertower Music
Аудио кодек: FLAC
Тип рипа: tracks+.cue
Битрейт аудио: lossless
Продолжительность: 00:52:34



Трэклист:
01. Discombobulate [02:24]
02. Is It Poison, Nanny? [02:53]
03. I Never Woke Up In Handcuffs Before [01:43]
04. My Mind Rebels At Stagnation [04:31]
05. Data, Data, Data [02:15]
06. He's Killed The Dog Again [03:15]
07. Marital Sabotage [03:44]
08. Not In Blood, But In Bond [02:13]
09. Ah, Putrefaction [01:50]
10. Panic, Shear Bloody Panic [02:38]
11. Psychological Recovery... 6 Months [18:17]
12. Catatonictes [06:44]
 
Exact Audio Copy V0.99 prebeta 5 from 4. May 2009

EAC extraction logfile from 8. January 2010, 16:01

Hans Zimmer / Sherlock Holmes

Used drive : LITE-ON DVD SHD-16P1S Adapter: 0 ID: 0

Read mode : SecureUtilize accurate stream : YesDefeat audio cache : YesMake use of C2 pointers : No

Read offset correction : 6Overread into Lead-In and Lead-Out : NoFill up missing offset samples with silence : YesDelete leading and trailing silent blocks : NoNull samples used in CRC calculations : YesUsed interface : Native Win32 interface for Win NT & 2000Gap handling : Appended to previous track

Used output format : User Defined EncoderSelected bitrate : 320 kBit/sQuality : HighAdd ID3 tag : NoCommand line compressor : C:\Program Files\FLAC\flac.exeAdditional command line options : -V -8 -T "artist=%a" -T "title=%t" -T "album=%g" -T "date=%y" -T "tracknumber=%n" -T "genre=%m" %s

TOC of the extracted CD

Track | Start | Length | Start sector | End sector --------------------------------------------------------- 1 | 0:00.00 | 2:24.70 | 0 | 10869 2 | 2:24.70 | 2:53.07 | 10870 | 23851 3 | 5:18.02 | 1:43.72 | 23852 | 31648 4 | 7:01.74 | 4:31.44 | 31649 | 52017 5 | 11:33.43 | 2:15.67 | 52018 | 62209 6 | 13:49.35 | 3:15.26 | 62210 | 76860 7 | 17:04.61 | 3:44.29 | 76861 | 93689 8 | 20:49.15 | 2:13.65 | 93690 | 103729 9 | 23:03.05 | 1:50.19 | 103730 | 111998 10 | 24:53.24 | 2:38.29 | 111999 | 123877 11 | 27:31.53 | 18:17.59 | 123878 | 206211 12 | 45:49.37 | 6:44.67 | 206212 | 236578 13 | 55:06.29 | 0:32.46 | 247979 | 250424

Track 1

Filename H:\Musiques\Hans Zimmer\Sherlock Holmes\FLAC\01 Discombobulate.wav

Pre-gap length 0:00:02.00

Peak level 96.5 % Track quality 100.0 % Test CRC 62BD3F12 Copy CRC 62BD3F12 Track not present in AccurateRip database Copy OK

Track 2

Filename H:\Musiques\Hans Zimmer\Sherlock Holmes\FLAC\02 Is It Poison, Nanny .wav

Peak level 96.5 % Track quality 100.0 % Test CRC 85E846B6 Copy CRC 85E846B6 Track not present in AccurateRip database Copy OK

Track 3

Filename H:\Musiques\Hans Zimmer\Sherlock Holmes\FLAC\03 I Never Woke Up In Handcuffs Before.wav

Peak level 96.5 % Track quality 99.8 % Test CRC 3C0CD059 Copy CRC 3C0CD059 Track not present in AccurateRip database Copy OK

Track 4

Filename H:\Musiques\Hans Zimmer\Sherlock Holmes\FLAC\04 My Mind Rebels At Stagnation.wav

Peak level 99.9 % Track quality 100.0 % Test CRC BBBA28D6 Copy CRC BBBA28D6 Track not present in AccurateRip database Copy OK

Track 5

Filename H:\Musiques\Hans Zimmer\Sherlock Holmes\FLAC\05 Data, Data, Data.wav

Peak level 96.5 % Track quality 100.0 % Test CRC 6CE04525 Copy CRC 6CE04525 Track not present in AccurateRip database Copy OK

Track 6

Filename H:\Musiques\Hans Zimmer\Sherlock Holmes\FLAC\06 He's Killed The Dog Again.wav

Peak level 96.5 % Track quality 100.0 % Test CRC 10B7AD07 Copy CRC 10B7AD07 Track not present in AccurateRip database Copy OK

Track 7

Filename H:\Musiques\Hans Zimmer\Sherlock Holmes\FLAC\07 Marital Sabotage.wav

Peak level 97.3 % Track quality 100.0 % Test CRC A451355C Copy CRC A451355C Track not present in AccurateRip database Copy OK

Track 8

Filename H:\Musiques\Hans Zimmer\Sherlock Holmes\FLAC\08 Not In Blood, But In Bond.wav

Peak level 66.5 % Track quality 100.0 % Test CRC 07D6FF0D Copy CRC 07D6FF0D Track not present in AccurateRip database Copy OK

Track 9

Filename H:\Musiques\Hans Zimmer\Sherlock Holmes\FLAC\09 Ah, Putrefaction.wav

Peak level 82.0 % Track quality 99.9 % Test CRC C9DCEF91 Copy CRC C9DCEF91 Track not present in AccurateRip database Copy OK

Track 10

Filename H:\Musiques\Hans Zimmer\Sherlock Holmes\FLAC\10 Panic, Shear Bloody Panic.wav

Peak level 96.5 % Track quality 99.9 % Test CRC AA0C3CB5 Copy CRC AA0C3CB5 Track not present in AccurateRip database Copy OK

Track 11

Filename H:\Musiques\Hans Zimmer\Sherlock Holmes\FLAC\11 Psychological Recovery... 6 Months.wav

Peak level 98.9 % Track quality 99.9 % Test CRC 0A7B689C Copy CRC 0A7B689C Track not present in AccurateRip database Copy OK

Track 12

Filename H:\Musiques\Hans Zimmer\Sherlock Holmes\FLAC\12 Catatonic.wav

Peak level 95.4 % Track quality 100.0 % Test CRC 089E4E7B Copy CRC 089E4E7B Track not present in AccurateRip database Copy OK

None of the tracks are present in the AccurateRip database

No errors occurred

End of status report


Трекер:  [ 20-Дек-2010 16:20 ]

  

Скачать .torrent

Размер .torrent файла 11 KB


Размер: 256 MB
Хэш (hash) релиза: 24c0f1c1bb6cd0969a23a346931aa47a26a2d313

bot

Топик был перенесен в форум Саундтреки к фильмам и мультфильмам (lossless)

Перенес AqvaGen

Хотите добавить комментарий к записи скачать торрент Шерлок Холмс Sherlock Holmes

!Обратная связь