Скачать через торрент музыку Паркер Parker бесплатно без регистрации torrent

Если у вас наблюдаются проблемы со скриншотами, переходом по ссылками, скачиванием торрентов - проблемы в блокировщике рекламы AdBlock. #хорошегоДня!


Статистика раздачи
Размер:  261 MB   |    Зарегистрирован:  4 года 3 месяца   |    .torrent скачан:  22 раза   |   
Раздают:  1  
   
Загрузка...
 
Автор Сообщение

Galfimbul

avatar Galfimbul


Паркер / Parker


Жанр: Score || Композитор: David Buckley || Год выпуска диска: 2012 || Страна-производитель диска: США || Аудио кодек: FLAC (*.flac) || Тип рипа: tracks+.cue || Битрейт аудио: lossless || Продолжительность: 00:57:00 || Источник: What.cd || Наличие сканов в содержимом раздачи: нет
Треклист:
01. Parker Takes Off (2:14)
02. Ohio State Fair Heist (2:59)
03. Parker’s Code (3:09)
04. Not So Clean Escape (2:53)
05. Shower Love (2:58)
06. Heal Thy Self (2:20)
07. Leslie In Boca (2:34)
08. Leslie Snoops (2:54)
09. Guns & Money (4:28)
10. It’s The Principle (1:32)
11. Fish Shack (1:30)
12. Stick To Business (1:13)
13. Take Off Your Clothes (4:01)
14. Greed Trumps All (2:30)
15. Kroll’s Knife (1:47)
16. Leslie Meets Claire (2:28)
17. Going To Ca’d’zan (2:12)
18. Diamond Heist (3:33)
19. We’ve Got The Girl (3:43)
20. We Split The Rest (3:32)
21. Nothing But Bills (2:03)
Exact Audio Copy V1.0 beta 3 from 29. August 2011

EAC extraction logfile from 23. February 2013, 11:27

David Buckley / Parker

Used drive : HL-DT-STBD-RE BH10LS38 Adapter: 1 ID: 0

Read mode : SecureUtilize accurate stream : YesDefeat audio cache : YesMake use of C2 pointers : No

Read offset correction : 667Overread into Lead-In and Lead-Out : NoFill up missing offset samples with silence : YesDelete leading and trailing silent blocks : NoNull samples used in CRC calculations : YesUsed interface : Native Win32 interface for Win NT & 2000Gap handling : Appended to previous track

Used output format : User Defined EncoderSelected bitrate : 768 kBit/sQuality : HighAdd ID3 tag : NoCommand line compressor : C:\Program Files (x86)\Exact Audio Copy\FLAC\FLAC.EXEAdditional command line options : -8 -V -T "ARTIST=%artist%" -T "TITLE=%title%" -T "ALBUM=%albumtitle%" -T "DATE=%year%" -T "TRACKNUMBER=%tracknr%" -T "GENRE=%genre%" -T "PERFORMER=%albuminterpret%" -T "COMPOSER=%composer%" %haslyrics%--tag-from-file=LYRICS="%lyricsfile%"%haslyrics% -T "ALBUMARTIST=%albumartist%" -T "ALBUM ARTIST=%albumartist%" -T "DISCNUMBER=%cdnumber%" -T "TOTALDISCS=%totalcds%" -T "TOTALTRACKS=%numtracks%" -T "COMMENT=%comment%" %source% -o %dest%

TOC of the extracted CD

Track | Start | Length | Start sector | End sector --------------------------------------------------------- 1 | 0:00.00 | 2:15.28 | 0 | 10152 2 | 2:15.28 | 3:00.25 | 10153 | 23677 3 | 5:15.53 | 3:09.59 | 23678 | 37911 4 | 8:25.37 | 2:55.06 | 37912 | 51042 5 | 11:20.43 | 2:59.39 | 51043 | 64506 6 | 14:20.07 | 2:22.14 | 64507 | 75170 7 | 16:42.21 | 2:34.43 | 75171 | 86763 8 | 19:16.64 | 2:55.74 | 86764 | 99962 9 | 22:12.63 | 4:28.56 | 99963 | 120118 10 | 26:41.44 | 1:33.18 | 120119 | 127111 11 | 28:14.62 | 1:31.45 | 127112 | 133981 12 | 29:46.32 | 1:14.52 | 133982 | 139583 13 | 31:01.09 | 4:00.39 | 139584 | 157622 14 | 35:01.48 | 2:31.48 | 157623 | 168995 15 | 37:33.21 | 1:50.00 | 168996 | 177245 16 | 39:23.21 | 2:29.73 | 177246 | 188493 17 | 41:53.19 | 2:11.57 | 188494 | 198375 18 | 44:05.01 | 3:34.73 | 198376 | 214498 19 | 47:39.74 | 3:44.12 | 214499 | 231310 20 | 51:24.11 | 3:32.59 | 231311 | 247269 21 | 54:56.70 | 2:03.19 | 247270 | 256513

Track 1

Filename C:\Users\chris\Desktop\Rips\01 - Parker Takes Off.wav

Pre-gap length 0:00:02.00

Peak level 94.4 % Extraction speed 1.0 X Track quality 100.0 % Test CRC 0C2B3017 Copy CRC 0C2B3017 Track not present in AccurateRip database Copy OK

Track 2

Filename C:\Users\chris\Desktop\Rips\02 - Ohio State Fair Heist.wav

Pre-gap length 0:00:01.04

Peak level 94.4 % Extraction speed 1.1 X Track quality 100.0 % Test CRC C228E02E Copy CRC C228E02E Track not present in AccurateRip database Copy OK

Track 3

Filename C:\Users\chris\Desktop\Rips\03 - Parker's Code.wav

Pre-gap length 0:00:00.71

Peak level 94.4 % Extraction speed 1.2 X Track quality 100.0 % Test CRC 15EF6830 Copy CRC 15EF6830 Track not present in AccurateRip database Copy OK

Track 4

Filename C:\Users\chris\Desktop\Rips\04 - Not So Clean Escape.wav

Pre-gap length 0:00:00.74

Peak level 94.4 % Extraction speed 1.3 X Track quality 100.0 % Test CRC 0134C4F1 Copy CRC 0134C4F1 Track not present in AccurateRip database Copy OK

Track 5

Filename C:\Users\chris\Desktop\Rips\05 - Shower Love.wav

Pre-gap length 0:00:01.28

Peak level 80.7 % Extraction speed 1.4 X Track quality 100.0 % Test CRC 7E121924 Copy CRC 7E121924 Track not present in AccurateRip database Copy OK

Track 6

Filename C:\Users\chris\Desktop\Rips\06 - Heal Thy Self.wav

Pre-gap length 0:00:01.10

Peak level 94.4 % Extraction speed 1.4 X Track quality 100.0 % Test CRC BB7C4600 Copy CRC BB7C4600 Track not present in AccurateRip database Copy OK

Track 7

Filename C:\Users\chris\Desktop\Rips\07 - Leslie In Boca.wav

Pre-gap length 0:00:00.74

Peak level 94.4 % Extraction speed 1.5 X Track quality 100.0 % Test CRC 387B0D47 Copy CRC 387B0D47 Track not present in AccurateRip database Copy OK

Track 8

Filename C:\Users\chris\Desktop\Rips\08 - Leslie Snoops.wav

Pre-gap length 0:00:00.57

Peak level 94.4 % Extraction speed 1.6 X Track quality 100.0 % Test CRC 55618861 Copy CRC 55618861 Track not present in AccurateRip database Copy OK

Track 9

Filename C:\Users\chris\Desktop\Rips\09 - Guns & Money.wav

Pre-gap length 0:00:01.00

Peak level 96.8 % Extraction speed 1.8 X Track quality 100.0 % Test CRC 303E72A3 Copy CRC 303E72A3 Track not present in AccurateRip database Copy OK

Track 10

Filename C:\Users\chris\Desktop\Rips\10 - It's The Principle.wav

Pre-gap length 0:00:00.74

Peak level 71.9 % Extraction speed 1.5 X Track quality 100.0 % Test CRC D7B5AF33 Copy CRC D7B5AF33 Track not present in AccurateRip database Copy OK

Track 11

Filename C:\Users\chris\Desktop\Rips\11 - Fish Shack.wav

Pre-gap length 0:00:00.74

Peak level 52.9 % Extraction speed 1.1 X Track quality 99.8 % Test CRC 7CFD0F93 Copy CRC 7CFD0F93 Track not present in AccurateRip database Copy OK

Track 12

Filename C:\Users\chris\Desktop\Rips\12 - Stick To Business.wav

Pre-gap length 0:00:00.74

Peak level 94.4 % Extraction speed 1.0 X Track quality 99.8 % Test CRC 59D15FF5 Copy CRC 59D15FF5 Track not present in AccurateRip database Copy OK

Track 13

Filename C:\Users\chris\Desktop\Rips\13 - Take Off Your Clothes.wav

Pre-gap length 0:00:00.74

Peak level 94.4 % Extraction speed 1.9 X Track quality 100.0 % Test CRC 9690C5D2 Copy CRC 9690C5D2 Track not present in AccurateRip database Copy OK

Track 14

Filename C:\Users\chris\Desktop\Rips\14 - Greed Trumps All.wav

Pre-gap length 0:00:00.29

Peak level 91.0 % Extraction speed 1.8 X Track quality 100.0 % Test CRC 885B4CC8 Copy CRC 885B4CC8 Track not present in AccurateRip database Copy OK

Track 15

Filename C:\Users\chris\Desktop\Rips\15 - Kroll's Knife.wav

Pre-gap length 0:00:00.74

Peak level 94.4 % Extraction speed 1.7 X Track quality 100.0 % Test CRC FDE881CE Copy CRC FDE881CE Track not present in AccurateRip database Copy OK

Track 16

Filename C:\Users\chris\Desktop\Rips\16 - Leslie Meets Claire.wav

Pre-gap length 0:00:01.14

Peak level 94.4 % Extraction speed 1.9 X Track quality 100.0 % Test CRC 9F192EDE Copy CRC 9F192EDE Track not present in AccurateRip database Copy OK

Track 17

Filename C:\Users\chris\Desktop\Rips\17 - Going To Ca'd'zan.wav

Pre-gap length 0:00:01.00

Peak level 94.4 % Extraction speed 1.9 X Track quality 100.0 % Test CRC F35DFB2B Copy CRC F35DFB2B Track not present in AccurateRip database Copy OK

Track 18

Filename C:\Users\chris\Desktop\Rips\18 - Diamond Heist.wav

Pre-gap length 0:00:00.74

Peak level 94.4 % Extraction speed 2.1 X Track quality 100.0 % Test CRC F15E4BAC Copy CRC F15E4BAC Track not present in AccurateRip database Copy OK

Track 19

Filename C:\Users\chris\Desktop\Rips\19 - We've Got The Girl.wav

Pre-gap length 0:00:00.74

Peak level 94.4 % Extraction speed 2.2 X Track quality 100.0 % Test CRC 27F1AB43 Copy CRC 27F1AB43 Track not present in AccurateRip database Copy OK

Track 20

Filename C:\Users\chris\Desktop\Rips\20 - We Split The Rest.wav

Pre-gap length 0:00:00.74

Peak level 94.4 % Extraction speed 1.9 X Track quality 99.9 % Test CRC 1F65A3EA Copy CRC 1F65A3EA Track not present in AccurateRip database Copy OK

Track 21

Filename C:\Users\chris\Desktop\Rips\21 - Nothing But Bills.wav

Pre-gap length 0:00:01.09

Peak level 94.4 % Extraction speed 2.0 X Track quality 100.0 % Test CRC 60EB33BF Copy CRC 60EB33BF Track not present in AccurateRip database Copy OK

None of the tracks are present in the AccurateRip database

No errors occurred

End of status report

==== Log checksum 0262C64EBC4D45AEC3F9F57E59B641A6F2F973A9AE06AE012FB06B5CB7C594FF ====
REM GENRE SoundtrackREM DATE 2013REM DISCID 2A0D5C15REM COMMENT "ExactAudioCopy v1.0b3"PERFORMER "David Buckley"TITLE "Parker"FILE "01 - Parker Takes Off.wav" WAVE TRACK 01 AUDIO TITLE "Parker Takes Off" PERFORMER "David Buckley" INDEX 01 00:00:00 TRACK 02 AUDIO TITLE "Ohio State Fair Heist" PERFORMER "David Buckley" INDEX 00 02:14:24FILE "02 - Ohio State Fair Heist.wav" WAVE INDEX 01 00:00:00 TRACK 03 AUDIO TITLE "Parker's Code" PERFORMER "David Buckley" INDEX 00 02:59:29FILE "03 - Parker's Code.wav" WAVE INDEX 01 00:00:00 TRACK 04 AUDIO TITLE "Not So Clean Escape" PERFORMER "David Buckley" INDEX 00 03:08:60FILE "04 - Not So Clean Escape.wav" WAVE INDEX 01 00:00:00 TRACK 05 AUDIO TITLE "Shower Love" PERFORMER "David Buckley" INDEX 00 02:53:53FILE "05 - Shower Love.wav" WAVE INDEX 01 00:00:00 TRACK 06 AUDIO TITLE "Heal Thy Self" PERFORMER "David Buckley" INDEX 00 02:58:29FILE "06 - Heal Thy Self.wav" WAVE INDEX 01 00:00:00 TRACK 07 AUDIO TITLE "Leslie In Boca" PERFORMER "David Buckley" INDEX 00 02:21:15FILE "07 - Leslie In Boca.wav" WAVE INDEX 01 00:00:00 TRACK 08 AUDIO TITLE "Leslie Snoops" PERFORMER "David Buckley" INDEX 00 02:33:61FILE "08 - Leslie Snoops.wav" WAVE INDEX 01 00:00:00 TRACK 09 AUDIO TITLE "Guns & Money" PERFORMER "David Buckley" INDEX 00 02:54:74FILE "09 - Guns & Money.wav" WAVE INDEX 01 00:00:00 TRACK 10 AUDIO TITLE "It's The Principle" PERFORMER "David Buckley" INDEX 00 04:27:57FILE "10 - It's The Principle.wav" WAVE INDEX 01 00:00:00 TRACK 11 AUDIO TITLE "Fish Shack" PERFORMER "David Buckley" INDEX 00 01:32:19FILE "11 - Fish Shack.wav" WAVE INDEX 01 00:00:00 TRACK 12 AUDIO TITLE "Stick To Business" PERFORMER "David Buckley" INDEX 00 01:30:46FILE "12 - Stick To Business.wav" WAVE INDEX 01 00:00:00 TRACK 13 AUDIO TITLE "Take Off Your Clothes" PERFORMER "David Buckley" INDEX 00 01:13:53FILE "13 - Take Off Your Clothes.wav" WAVE INDEX 01 00:00:00 TRACK 14 AUDIO TITLE "Greed Trumps All" PERFORMER "David Buckley" INDEX 00 04:00:10FILE "14 - Greed Trumps All.wav" WAVE INDEX 01 00:00:00 TRACK 15 AUDIO TITLE "Kroll's Knife" PERFORMER "David Buckley" INDEX 00 02:30:49FILE "15 - Kroll's Knife.wav" WAVE INDEX 01 00:00:00 TRACK 16 AUDIO TITLE "Leslie Meets Claire" PERFORMER "David Buckley" INDEX 00 01:48:61FILE "16 - Leslie Meets Claire.wav" WAVE INDEX 01 00:00:00 TRACK 17 AUDIO TITLE "Going To Ca'd'zan" PERFORMER "David Buckley" INDEX 00 02:28:73FILE "17 - Going To Ca'd'zan.wav" WAVE INDEX 01 00:00:00 TRACK 18 AUDIO TITLE "Diamond Heist" PERFORMER "David Buckley" INDEX 00 02:10:58FILE "18 - Diamond Heist.wav" WAVE INDEX 01 00:00:00 TRACK 19 AUDIO TITLE "We've Got The Girl" PERFORMER "David Buckley" INDEX 00 03:33:74FILE "19 - We've Got The Girl.wav" WAVE INDEX 01 00:00:00 TRACK 20 AUDIO TITLE "We Split The Rest" PERFORMER "David Buckley" INDEX 00 03:43:13FILE "20 - We Split The Rest.wav" WAVE INDEX 01 00:00:00 TRACK 21 AUDIO TITLE "Nothing But Bills" PERFORMER "David Buckley" INDEX 00 03:31:50FILE "21 - Nothing But Bills.wav" WAVE INDEX 01 00:00:00




Трекер:  [ 12-Июн-2013 16:36 ]

  

Скачать .torrent

Размер .torrent файла 12 KB


Размер: 261 MB
Хэш (hash) релиза: 1197c20ac5b6157dcee6038bb3adce2ad2ec45a4

Торренты, похожие на Паркер Parker скачать торрент

Форум Название Автор Размер S L Добавлен
Саундтреки ·· (Score) Миссис Паркер и порочный круг / Mrs. Parker and the Vicious Circle (by Mark Isham) - 1994, MP3, 320 kbps Umakiro 126022166120 MB 0 0 1332153780

13:43

19-Мар-12

bot

Топик был перенесен в форум Саундтреки к фильмам и мультфильмам (lossless)

Перенес Galfimbul

Хотите добавить комментарий к записи скачать торрент Паркер Parker

!Обратная связь