Скачать через торрент музыку Taylor Swift - You Belong With Me бесплатно без регистрации torrent

Если у вас наблюдаются проблемы со скриншотами, переходом по ссылками, скачиванием торрентов - проблемы в блокировщике рекламы AdBlock. #хорошегоДня!


Статистика раздачи
Размер:  232 MB   |    Зарегистрирован:  4 года 6 месяцев   |    .torrent скачан:  53 раза   |   
Раздают:  1  
   
Загрузка...
 
Автор Сообщение

Galfimbul

avatar Galfimbul


Taylor Swift - You Belong With Me (Palladia)

Жанр: Country pop
Продолжительность: 03:46
Год выпуска: 2009

Качество: HDTV 1080i
Контейнер: MKV

Видео: AVC 1920x1080 16:9 8192 Kbps 23.976 fps
Аудио: AC3 384 kbps 2 channels 48 KHz
GeneralUnique ID : 214783236197282633361639608491201966703 (0xA195BF22204DE007A418D5AE190EB26F)Complete name : D:\Taylor Swift - You Belong With Me.mkvFormat : MatroskaFile size : 232 MiBDuration : 3mn 46sOverall bit rate : 8 574 KbpsMovie name : Taylor Swift - You Belong With MeEncoded date : UTC 2011-07-01 10:18:28Writing application : mkvmerge v3.3.0 ('Language') built on Mar 24 2010 14:59:24Writing library : libebml v0.8.0 + libmatroska v0.9.0

VideoID : 1Format : AVCFormat/Info : Advanced Video CodecFormat profile : High@L4.1Format settings, CABAC : YesFormat settings, ReFrames : 4 framesFormat settings, GOP : M=1, N=9Codec ID : V_MPEG4/ISO/AVCDuration : 3mn 46sBit rate : 8 192 KbpsWidth : 1 920 pixelsHeight : 1 080 pixelsDisplay aspect ratio : 16:9Frame rate : 23.976 fpsColor space : YUVChroma subsampling : 4:2:0Bit depth : 8 bitsScan type : ProgressiveBits/(Pixel*Frame) : 0.165Stream size : 217 MiB (94%)Title : MaGHDWriting library : x264 core 98 r1649 20cbe10Encoding settings : cabac=1 / ref=4 / deblock=1:-3:-3 / analyse=0x3:0x113 / me=umh / subme=6 / psy=1 / psy_rd=1.00:0.00 / mixed_ref=1 / me_range=16 / chroma_me=1 / trellis=2 / 8x8dct=1 / cqm=0 / deadzone=21,11 / fast_pskip=1 / chroma_qp_offset=-2 / threads=3 / sliced_threads=0 / nr=0 / decimate=0 / interlaced=0 / constrained_intra=0 / bframes=3 / b_pyramid=2 / b_adapt=1 / b_bias=0 / direct=3 / weightb=1 / weightp=2 / keyint=250 / keyint_min=25 / scenecut=40 / intra_refresh=0 / rc_lookahead=40 / rc=2pass / mbtree=1 / bitrate=8192 / ratetol=2.0 / qcomp=0.60 / qpmin=10 / qpmax=51 / qpstep=4 / cplxblur=20.0 / qblur=0.5 / vbv_maxrate=38000 / vbv_bufsize=30000 / ip_ratio=1.40 / aq=1:1.00 / nal_hrd=noneLanguage : English

AudioID : 2Format : AC-3Format/Info : Audio Coding 3Mode extension : CM (complete main)Codec ID : A_AC3Duration : 3mn 46sBit rate mode : ConstantBit rate : 384 KbpsChannel(s) : 2 channelsChannel positions : Front: L RSampling rate : 48.0 KHzBit depth : 16 bitsCompression mode : LossyStream size : 10.4 MiB (4%)


Трекер:  [ 20-Мар-2013 16:58 ]

  

Скачать .torrent

Размер .torrent файла 18 KB


Размер: 232 MB
Хэш (hash) релиза: a847841bf3ad37f53f1e27b4ebc2c6b1bb9ec245

Еще никто не оставлял запись к записи скачать торрент Taylor Swift - You Belong With Me . Будь первым!

!Обратная связь