Скачать через торрент музыку Paula Fernandes - Ao Vivo бесплатно без регистрации torrent

Если у вас наблюдаются проблемы со скриншотами, переходом по ссылками, скачиванием торрентов - проблемы в блокировщике рекламы AdBlock. #хорошегоДня!


Статистика раздачи
Размер:  7.66 GB   |    Зарегистрирован:  4 года 6 месяцев   |    .torrent скачан:  55 раз   |   
Раздают:  1  
   
Загрузка...
 
Автор Сообщение

Galfimbul

avatar Galfimbul


Paula Fernandes - Ao Vivo

Жанр: Sertanejo, Brazilian Country
Продолжительность: 1:24:57 + бонусы
Год выпуска: 2011

Описание: Паула Фернандес де Соуза (порт. Paula Fernandes de Souza) — бразильская кантри певица, композитор и аранжировщик. Родилась 28 августа 1984 г. в Сети-Лагоас, Минас-Жерайс. Начала петь в восемь лет, и выпустила свой первый альбом еще до десяти лет, на виниле. В двенадцать лет, она переехала в Сан-Паулу и была нанята группой, с которой она путешествовала по всей стране и многому научились на сцене.
Второй альбом, "Ана Райо" (Ana Rayo), был вдохновлен успехом романа "История Анны Райо и Джо Гром" (A História de Ana Raio e Zé Trovão). Проблемы с продолжением карьеры вынудили ее в 18 лет прервать артистическую карьеру и вернуться в Минас-Жерайс. Она училась географии в Белу-Оризонти и, параллельно, играла и пела в барах.
После успеха записи Ave Maria Natureza для теленовеллы América, бразильской телевизионной сети Globo, выпустила компакт-диск "Песни Южного ветра" (Canções do Vento Sul) с композициями в нескольких музыкальных стилях, хотя и с акцентом на романтическое бэккантри (Música sertaneja). С этим альбомом была номинирована на бразильской музыкальной премии (Prêmio TIM de Música) 2006 года в номинации лучшая поп-певица.
O álbum Ao Vivo de Paula Fernandes já é DVD de Ouro com mais de 25.000 cópias vendidas! Confira toda a magia e sucesso desse show em alta definição! Paula Fernandes roubou a cena no especial de fim de ano do Roberto Carlos e ganhou destaque em toda a mídia nacional. Já participou do 1º Fantástico do ano com entrevista e imagens do 1º DVD da carreira. Paula recebeu o disco de Platina pelo último CD "Pássaro de Fogo". O novo álbum "Paula Fernandes - Ao Vivo" conta com vários sucessos como: "Pássaro de Fogo", "Quando a Chuva Passar", "Meu Em Você", "Quero Sim", "Jeito de Mato" e outras músicas inéditas. Participações especiais de Victor & Leo, Leonardo, Marcus Viana e Almir Sater. Já teve mais de 5 músicas como temas de novelas e a atual "Tocando em Frente" com participação do Leonardo está na trilha da novela Araguaia, da TV Globo.
Концерт (1:24:57):
01 - Pássaro De Fogo
02 - Meu Eu Em Você
03 - Pra Você
04 - Apaixonados Pela Lua
05 - Tocando Em Frente - Partic.: Leonardo
06 - Índia - Particip.: Leonardo
07 - Amargurado / Sem Você / Ainda Ontem Chorei de Saudade
08 - Debaixo Do Cacho / Apaixonado Por Você
09 - Complicados Demais
10 - Voa
11 - Seio De Minas
12 - Jeito De Mato
13 - Sensações
14 - Costumes
15 - Quero Sim
16 - Quando a Chuva Passar - Partic.: Marcus Viana
17 - Não Precisa - Particip.: Victor & Leo
18 - Navegar Em Mim
19 - Tarde Demais
20 - Pra Que Conversar?
21 - Isso É Amar Você
22 - Pássaro De Fogo

Making Of (0:09:29)
Man! Feel Like A Woman (0:03:50)
Nem Pensar (0:03:38)
Jeito De Mato - Particip.: Almir Sater (0:04:58)
Доп. информация: Внимание! Формат 720p60 - один из стандартных для аппаратных декодеров, но по "тяжести" для программных - как 1080p.
Бонусы - Making Of и 3 клипа.

Качество: BDRip 720p ([url=http://http://рутраскер/forum/viewtopic.php?t=3925924]источник[/url])
Контейнер: MKV
Видео кодек: H.264
Аудио кодек: FLAC, AC3
Видео: x264, 1280x720, 8178 kbps, 59,94 fps
Аудио: FLAC, 2.0, 1700 kbps, 48 kHz, 24 bit
Аудио 2: AC3, 5.1, 640 kbps, 48 kHz
Субтитры: SRT; португальские (речь и тексты песен); английские, испанские (речь)
Главы: подписаны
Продолжительность: 0:09:29
Видео: x264, 1280x720, 8153 kbps, 23,98 fps
Аудио: FLAC, 2.0, 1180 kbps, 48 kHz, 24 bit
* Португальский, субтитров нет

Продолжительность: 0:03:50
Видео: x264, 1280x720, 6264 kbps, 59,94 fps
Аудио: FLAC, 2.0, 1763 kbps, 48 kHz, 24 bit
Аудио 2: AC3, 5.1, 640 kbps, 48 kHz

Продолжительность: 0:03:38
Видео: x264, 1280x720, 7128 kbps, 59,94 fps
Аудио: FLAC, 2.0, 1768 kbps, 48 kHz, 24 bit
Аудио 2: AC3, 5.1, 640 kbps, 48 kHz

Продолжительность: 0:04:58
Видео: x264, 1280x720, 7571 kbps, 23,98 fps
Аудио: FLAC, 2.0, 1659 kbps, 48 kHz, 24 bit

Обработка в AVISynth:
AVCSource("Video.h264")
# QTGMC("fast", TR2=1) # концерт, клипы Man Feel Like A Woman, Nem Pensar - деинтерлейс до 60p. Медленные пресеты для HD особо не нужны, но временнОе сглаживание включим.
# TDecimate() # клип Jeito De Mato - убираем telecine, 24p
# # Making of - без обработки, 24p
Dither_convert_8_to_16()
Dither_resize16(1280,720) # изменение размера до 720p. 1080p особо не оправдан.
DitherPost() # dithering вместо округления

Настройки x264:
--level 4 --preset veryslow --tune film --crf 17 --deblock -3:-3
--vbv-bufsize 25000 --vbv-maxrate 25000 --qpfile "chapters.txt"
--colorprim bt709 --transfer bt709 --colormatrix bt709
Бонусные файлы закодированы с тем же CRF (можно было поменьше).

Из логов:
Концерт:
avs [info]: 1280x720p 1:1 @ 60000/1001 fps (cfr)
x264 [info]: frame I:1369 Avg QP:18.01 size:127980
x264 [info]: frame P:63822 Avg QP:21.12 size: 41711
x264 [info]: frame B:240345 Avg QP:24.08 size: 9875
x264 [info]: consecutive B-frames: 0.8% 0.5% 3.3% 30.8% 23.3% 39.5% 1.1% 0.2% 0.5%
x264 [info]: ref P L0: 43.1% 11.2% 20.2% 6.5% 5.9% 4.2% 4.0% 2.3% 2.5% [9] 0.2% 0.0%
x264 [info]: kb/s:8177.87

Making Of:
avs [info]: 1280x720p 1:1 @ 24000/1001 fps (cfr)
x264 [info]: frame I:95 Avg QP:14.99 size:180734
x264 [info]: frame P:2555 Avg QP:17.97 size: 80198
x264 [info]: frame B:10997 Avg QP:20.15 size: 32552
x264 [info]: consecutive B-frames: 1.0% 0.9% 3.6% 10.8% 13.4% 60.1% 6.4% 1.9% 1.8%
x264 [info]: ref P L0: 36.7% 9.4% 19.6% 8.0% 7.7% 5.2% 5.8% 3.4% 4.1% [9] 0.2% 0.0%
x264 [info]: kb/s:8152.53

Man! Feel Like A Woman:
avs [info]: 1280x720p 1:1 @ 60000/1001 fps (cfr)
x264 [info]: frame I:142 Avg QP:17.43 size:108759
x264 [info]: frame P:3045 Avg QP:21.17 size: 30650
x264 [info]: frame B:10611 Avg QP:24.92 size: 6736
x264 [info]: consecutive B-frames: 2.0% 0.8% 7.7% 28.4% 28.1% 31.6% 0.5% 0.3% 0.6%
x264 [info]: ref P L0: 50.2% 9.3% 20.5% 5.7% 4.8% 3.1% 3.0% 1.5% 1.8% [9] 0.3% 0.0%
x264 [info]: kb/s:6264.37

Nem Pensar:
avs [info]: 1280x720p 1:1 @ 60000/1001 fps (cfr)
x264 [info]: frame I:124 Avg QP:17.56 size:107004
x264 [info]: frame P:2962 Avg QP:21.24 size: 34281
x264 [info]: frame B:9962 Avg QP:24.72 size: 7946
x264 [info]: consecutive B-frames: 1.6% 1.3% 8.6% 36.4% 25.8% 23.6% 1.0% 0.7% 1.0%
x264 [info]: ref P L0: 45.1% 9.4% 19.5% 5.9% 5.7% 4.1% 4.2% 2.6% 2.9% [9] 0.5% 0.0%
x264 [info]: kb/s:7128.25

Jeito De Mato:
avs [info]: 1280x720p 1:1 @ 24000/1001 fps (cfr)
x264 [info]: frame I:58 Avg QP:15.70 size:199962
x264 [info]: frame P:1533 Avg QP:18.71 size: 84515
x264 [info]: frame B:5551 Avg QP:21.89 size: 25354
x264 [info]: consecutive B-frames: 1.4% 1.2% 6.8% 24.4% 29.4% 31.7% 4.4% 0.7% 0.0%
x264 [info]: ref P L0: 46.8% 15.3% 19.6% 5.0% 4.8% 2.5% 2.6% 1.4% 1.8% [9] 0.1% 0.0%
x264 [info]: kb/s:7570.76

Звук:
2.0 - из PCM 2.0 24 bit в FLAC
5.1 - копия AC3 640 kbps

MediaInfo:
General
Unique ID : 182345791977294278234676252035030955542 (0x892E85A85BF53D93A3A6E2B967CFB616)
Complete name : ...\Paula Fernandes Ao Vivo (60p).mkv
Format : Matroska
Format version : Version 2
File size : 6.24 GiB
Duration : 1h 24mn
Overall bit rate mode : Variable
Overall bit rate : 10.5 Mbps
Encoded date : UTC 2012-09-20 07:06:20
Writing application : mkvmerge v5.8.0 ('No Sleep / Pillow') built on Sep 2 2012 15:37:04
Writing library : libebml v1.2.3 + libmatroska v1.3.0

Video
ID : 1
Format : AVC
Format/Info : Advanced Video Codec
Format profile : High@L4.0
Format settings, CABAC : Yes
Format settings, ReFrames : 9 frames
Codec ID : V_MPEG4/ISO/AVC
Duration : 1h 24mn
Width : 1 280 pixels
Height : 720 pixels
Display aspect ratio : 16:9
Frame rate : 59.940 fps
Color space : YUV
Chroma subsampling : 4:2:0
Bit depth : 8 bits
Scan type : Progressive
Writing library : x264 core 125 r2208 d9d2288
Encoding settings : cabac=1 / ref=9 / deblock=1:-3:-3 / analyse=0x3:0x133 / me=umh / subme=10 / psy=1 / psy_rd=1.00:0.15 / mixed_ref=1 / me_range=24 / chroma_me=1 / trellis=2 / 8x8dct=1 / cqm=0 / deadzone=21,11 / fast_pskip=1 / chroma_qp_offset=-3 / threads=3 / lookahead_threads=1 / sliced_threads=0 / nr=0 / decimate=1 / interlaced=0 / bluray_compat=0 / constrained_intra=0 / bframes=8 / b_pyramid=2 / b_adapt=2 / b_bias=0 / direct=3 / weightb=1 / open_gop=0 / weightp=2 / keyint=599 / keyint_min=59 / scenecut=40 / intra_refresh=0 / rc_lookahead=60 / rc=crf / mbtree=1 / crf=17.0 / qcomp=0.60 / qpmin=0 / qpmax=69 / qpstep=4 / vbv_maxrate=25000 / vbv_bufsize=25000 / crf_max=0.0 / nal_hrd=none / ip_ratio=1.40 / aq=1:1.00
Language : Portuguese
Default : Yes
Forced : No
Color primaries : BT.709-5, BT.1361, IEC 61966-2-4, SMPTE RP177
Transfer characteristics : BT.709-5, BT.1361
Matrix coefficients : BT.709-5, BT.1361, IEC 61966-2-4 709, SMPTE RP177

Audio #1
ID : 2
Format : FLAC
Format/Info : Free Lossless Audio Codec
Codec ID : A_FLAC
Duration : 1h 24mn
Bit rate mode : Variable
Channel(s) : 2 channels
Sampling rate : 48.0 KHz
Bit depth : 24 bits
Title : FLAC 2.0 1700 kbps
Writing library : libFLAC 1.2.1 (UTC 2007-09-17)
Language : Portuguese
Default : Yes
Forced : No

Audio #2
ID : 3
Format : AC-3
Format/Info : Audio Coding 3
Mode extension : CM (complete main)
Format settings, Endianness : Big
Codec ID : A_AC3
Duration : 1h 24mn
Bit rate mode : Constant
Bit rate : 640 Kbps
Channel(s) : 6 channels
Channel positions : Front: L C R, Side: L R, LFE
Sampling rate : 48.0 KHz
Bit depth : 16 bits
Compression mode : Lossy
Delay relative to video : 6ms
Stream size : 389 MiB (6%)
Title : AC3 5.1 640 kbps
Language : Portuguese
Default : No
Forced : No

Text #1
ID : 4
Format : UTF-8
Codec ID : S_TEXT/UTF8
Codec ID/Info : UTF-8 Plain Text
Title : English: spoken
Language : English
Default : Yes
Forced : No

Text #2
ID : 5
Format : UTF-8
Codec ID : S_TEXT/UTF8
Codec ID/Info : UTF-8 Plain Text
Title : Spanish: spoken
Language : Spanish
Default : No
Forced : No

Text #3
ID : 6
Format : UTF-8
Codec ID : S_TEXT/UTF8
Codec ID/Info : UTF-8 Plain Text
Title : Portuguese Original: spoken + lyrics
Language : Portuguese
Default : No
Forced : No

Menu
00:00:00.000 : pt:Pássaro De Fogo
00:03:13.260 : pt:Meu Eu Em Você
00:07:05.659 : pt:Pra Você
00:10:41.274 : pt:Apaixonados Pela Lua
00:14:19.092 : pt:Tocando Em Frente - Partic.: Leonardo
00:18:03.449 : pt:Índia - Particip.: Leonardo
00:21:36.762 : pt:Amargurado / Sem Você / Ainda Ontem Chorei de Saudade
00:26:43.902 : pt:Debaixo Do Cacho / Apaixonado Por Você
00:31:35.093 : pt:Complicados Demais
00:35:00.231 : pt:Voa
00:38:59.003 : pt:Seio De Minas
00:41:11.803 : pt:Jeito De Mato
00:46:01.258 : pt:Sensações
00:49:56.560 : pt:Costumes
00:53:59.670 : pt:Quero Sim
00:57:56.740 : pt:Quando a Chuva Passar - Partic.: Marcus Viana
01:02:02.686 : pt:Não Precisa - Particip.: Victor & Leo
01:06:28.885 : pt:Navegar Em Mim
01:09:54.590 : pt:Tarde Demais
01:13:14.156 : pt:Pra Que Conversar?
01:16:38.327 : pt:Isso É Amar Você
01:19:57.893 : pt:Pássaro De Fogo

General
Unique ID : 179171288642567516706516679721609513897 (0x86CB228F2BCA5431A1E2E633E876CBA9)
Complete name : ...\Bonus\Making Of (24p).mkv
Format : Matroska
Format version : Version 2
File size : 633 MiB
Duration : 9mn 29s
Overall bit rate mode : Variable
Overall bit rate : 9 333 Kbps
Encoded date : UTC 2012-09-14 13:04:01
Writing application : mkvmerge v5.8.0 ('No Sleep / Pillow') built on Sep 2 2012 15:37:04
Writing library : libebml v1.2.3 + libmatroska v1.3.0

Video
ID : 1
Format : AVC
Format/Info : Advanced Video Codec
Format profile : High@L4.0
Format settings, CABAC : Yes
Format settings, ReFrames : 9 frames
Codec ID : V_MPEG4/ISO/AVC
Duration : 9mn 29s
Width : 1 280 pixels
Height : 720 pixels
Display aspect ratio : 16:9
Frame rate : 23.976 fps
Color space : YUV
Chroma subsampling : 4:2:0
Bit depth : 8 bits
Scan type : Progressive
Writing library : x264 core 125 r2208 d9d2288
Encoding settings : cabac=1 / ref=9 / deblock=1:-3:-3 / analyse=0x3:0x133 / me=umh / subme=10 / psy=1 / psy_rd=1.00:0.15 / mixed_ref=1 / me_range=24 / chroma_me=1 / trellis=2 / 8x8dct=1 / cqm=0 / deadzone=21,11 / fast_pskip=1 / chroma_qp_offset=-3 / threads=3 / lookahead_threads=1 / sliced_threads=0 / nr=0 / decimate=1 / interlaced=0 / bluray_compat=0 / constrained_intra=0 / bframes=8 / b_pyramid=2 / b_adapt=2 / b_bias=0 / direct=3 / weightb=1 / open_gop=0 / weightp=2 / keyint=240 / keyint_min=23 / scenecut=40 / intra_refresh=0 / rc_lookahead=60 / rc=crf / mbtree=1 / crf=17.0 / qcomp=0.60 / qpmin=0 / qpmax=69 / qpstep=4 / vbv_maxrate=25000 / vbv_bufsize=25000 / crf_max=0.0 / nal_hrd=none / ip_ratio=1.40 / aq=1:1.00
Language : Portuguese
Default : Yes
Forced : No
Color primaries : BT.709-5, BT.1361, IEC 61966-2-4, SMPTE RP177
Transfer characteristics : BT.709-5, BT.1361
Matrix coefficients : BT.709-5, BT.1361, IEC 61966-2-4 709, SMPTE RP177

Audio
ID : 2
Format : FLAC
Format/Info : Free Lossless Audio Codec
Codec ID : A_FLAC
Duration : 9mn 29s
Bit rate mode : Variable
Channel(s) : 2 channels
Sampling rate : 48.0 KHz
Bit depth : 24 bits
Title : FLAC 2.0 1180 kbps
Writing library : libFLAC 1.2.1 (UTC 2007-09-17)
Language : Portuguese
Default : Yes
Forced : No

General
Unique ID : 202921814248320752654123803436644962328 (0x98A951E13B79A8C5BBCDF740EEAA1018)
Complete name : ...\Bonus\Videos\Jeito De Mato (24p).mkv
Format : Matroska
Format version : Version 2
File size : 328 MiB
Duration : 4mn 59s
Overall bit rate mode : Variable
Overall bit rate : 9 196 Kbps
Encoded date : UTC 2012-09-14 11:12:03
Writing application : mkvmerge v5.8.0 ('No Sleep / Pillow') built on Sep 2 2012 15:37:04
Writing library : libebml v1.2.3 + libmatroska v1.3.0

Video
ID : 1
Format : AVC
Format/Info : Advanced Video Codec
Format profile : High@L4.0
Format settings, CABAC : Yes
Format settings, ReFrames : 9 frames
Codec ID : V_MPEG4/ISO/AVC
Duration : 4mn 59s
Width : 1 280 pixels
Height : 720 pixels
Display aspect ratio : 16:9
Frame rate : 23.976 fps
Color space : YUV
Chroma subsampling : 4:2:0
Bit depth : 8 bits
Scan type : Progressive
Writing library : x264 core 125 r2208 d9d2288
Encoding settings : cabac=1 / ref=9 / deblock=1:-3:-3 / analyse=0x3:0x133 / me=umh / subme=10 / psy=1 / psy_rd=1.00:0.15 / mixed_ref=1 / me_range=24 / chroma_me=1 / trellis=2 / 8x8dct=1 / cqm=0 / deadzone=21,11 / fast_pskip=1 / chroma_qp_offset=-3 / threads=3 / lookahead_threads=1 / sliced_threads=0 / nr=0 / decimate=1 / interlaced=0 / bluray_compat=0 / constrained_intra=0 / bframes=8 / b_pyramid=2 / b_adapt=2 / b_bias=0 / direct=3 / weightb=1 / open_gop=0 / weightp=2 / keyint=240 / keyint_min=23 / scenecut=40 / intra_refresh=0 / rc_lookahead=60 / rc=crf / mbtree=1 / crf=17.0 / qcomp=0.60 / qpmin=0 / qpmax=69 / qpstep=4 / vbv_maxrate=25000 / vbv_bufsize=25000 / crf_max=0.0 / nal_hrd=none / ip_ratio=1.40 / aq=1:1.00
Language : Portuguese
Default : Yes
Forced : No
Color primaries : BT.709-5, BT.1361, IEC 61966-2-4, SMPTE RP177
Transfer characteristics : BT.709-5, BT.1361
Matrix coefficients : BT.709-5, BT.1361, IEC 61966-2-4 709, SMPTE RP177

Audio
ID : 2
Format : FLAC
Format/Info : Free Lossless Audio Codec
Codec ID : A_FLAC
Duration : 4mn 59s
Bit rate mode : Variable
Channel(s) : 2 channels
Sampling rate : 48.0 KHz
Bit depth : 24 bits
Title : FLAC 2.0 1659 kbps
Writing library : libFLAC 1.2.1 (UTC 2007-09-17)
Language : Portuguese
Default : Yes
Forced : No

General
Unique ID : 183943198847521493701792498412996834859 (0x8A622BE5A2383412B52BDFAE6FB0B62B)
Complete name : ...\Bonus\Videos\Man Feel Like a Woman (60p).mkv
Format : Matroska
Format version : Version 2
File size : 238 MiB
Duration : 3mn 50s
Overall bit rate mode : Variable
Overall bit rate : 8 666 Kbps
Encoded date : UTC 2012-09-14 11:13:05
Writing application : mkvmerge v5.8.0 ('No Sleep / Pillow') built on Sep 2 2012 15:37:04
Writing library : libebml v1.2.3 + libmatroska v1.3.0

Video
ID : 1
Format : AVC
Format/Info : Advanced Video Codec
Format profile : High@L4.0
Format settings, CABAC : Yes
Format settings, ReFrames : 9 frames
Codec ID : V_MPEG4/ISO/AVC
Duration : 3mn 50s
Width : 1 280 pixels
Height : 720 pixels
Display aspect ratio : 16:9
Frame rate : 59.940 fps
Color space : YUV
Chroma subsampling : 4:2:0
Bit depth : 8 bits
Scan type : Progressive
Writing library : x264 core 125 r2208 d9d2288
Encoding settings : cabac=1 / ref=9 / deblock=1:-3:-3 / analyse=0x3:0x133 / me=umh / subme=10 / psy=1 / psy_rd=1.00:0.15 / mixed_ref=1 / me_range=24 / chroma_me=1 / trellis=2 / 8x8dct=1 / cqm=0 / deadzone=21,11 / fast_pskip=1 / chroma_qp_offset=-3 / threads=3 / lookahead_threads=1 / sliced_threads=0 / nr=0 / decimate=1 / interlaced=0 / bluray_compat=0 / constrained_intra=0 / bframes=8 / b_pyramid=2 / b_adapt=2 / b_bias=0 / direct=3 / weightb=1 / open_gop=0 / weightp=2 / keyint=599 / keyint_min=59 / scenecut=40 / intra_refresh=0 / rc_lookahead=60 / rc=crf / mbtree=1 / crf=17.0 / qcomp=0.60 / qpmin=0 / qpmax=69 / qpstep=4 / vbv_maxrate=25000 / vbv_bufsize=25000 / crf_max=0.0 / nal_hrd=none / ip_ratio=1.40 / aq=1:1.00
Language : Portuguese
Default : Yes
Forced : No
Color primaries : BT.709-5, BT.1361, IEC 61966-2-4, SMPTE RP177
Transfer characteristics : BT.709-5, BT.1361
Matrix coefficients : BT.709-5, BT.1361, IEC 61966-2-4 709, SMPTE RP177

Audio #1
ID : 2
Format : FLAC
Format/Info : Free Lossless Audio Codec
Codec ID : A_FLAC
Duration : 3mn 50s
Bit rate mode : Variable
Channel(s) : 2 channels
Sampling rate : 48.0 KHz
Bit depth : 24 bits
Title : FLAC 2.0 1763 kbps
Writing library : libFLAC 1.2.1 (UTC 2007-09-17)
Language : Portuguese
Default : Yes
Forced : No

Audio #2
ID : 3
Format : AC-3
Format/Info : Audio Coding 3
Mode extension : CM (complete main)
Format settings, Endianness : Big
Codec ID : A_AC3
Duration : 3mn 50s
Bit rate mode : Constant
Bit rate : 640 Kbps
Channel(s) : 6 channels
Channel positions : Front: L C R, Side: L R, LFE
Sampling rate : 48.0 KHz
Bit depth : 16 bits
Compression mode : Lossy
Stream size : 17.6 MiB (7%)
Title : AC3 5.1 640 kbps
Language : Portuguese
Default : No
Forced : No

General
Unique ID : 176263568146532471349155349445645115703 (0x849B20DECF17110BB84C760A1B6F2137)
Complete name : ...\Bonus\Videos\Nem Pensar (60p).mkv
Format : Matroska
Format version : Version 2
File size : 247 MiB
Duration : 3mn 37s
Overall bit rate mode : Variable
Overall bit rate : 9 524 Kbps
Encoded date : UTC 2012-09-14 11:14:08
Writing application : mkvmerge v5.8.0 ('No Sleep / Pillow') built on Sep 2 2012 15:37:04
Writing library : libebml v1.2.3 + libmatroska v1.3.0

Video
ID : 1
Format : AVC
Format/Info : Advanced Video Codec
Format profile : High@L4.0
Format settings, CABAC : Yes
Format settings, ReFrames : 9 frames
Codec ID : V_MPEG4/ISO/AVC
Duration : 3mn 37s
Width : 1 280 pixels
Height : 720 pixels
Display aspect ratio : 16:9
Frame rate : 59.940 fps
Color space : YUV
Chroma subsampling : 4:2:0
Bit depth : 8 bits
Scan type : Progressive
Writing library : x264 core 125 r2208 d9d2288
Encoding settings : cabac=1 / ref=9 / deblock=1:-3:-3 / analyse=0x3:0x133 / me=umh / subme=10 / psy=1 / psy_rd=1.00:0.15 / mixed_ref=1 / me_range=24 / chroma_me=1 / trellis=2 / 8x8dct=1 / cqm=0 / deadzone=21,11 / fast_pskip=1 / chroma_qp_offset=-3 / threads=3 / lookahead_threads=1 / sliced_threads=0 / nr=0 / decimate=1 / interlaced=0 / bluray_compat=0 / constrained_intra=0 / bframes=8 / b_pyramid=2 / b_adapt=2 / b_bias=0 / direct=3 / weightb=1 / open_gop=0 / weightp=2 / keyint=599 / keyint_min=59 / scenecut=40 / intra_refresh=0 / rc_lookahead=60 / rc=crf / mbtree=1 / crf=17.0 / qcomp=0.60 / qpmin=0 / qpmax=69 / qpstep=4 / vbv_maxrate=25000 / vbv_bufsize=25000 / crf_max=0.0 / nal_hrd=none / ip_ratio=1.40 / aq=1:1.00
Language : Portuguese
Default : Yes
Forced : No
Color primaries : BT.709-5, BT.1361, IEC 61966-2-4, SMPTE RP177
Transfer characteristics : BT.709-5, BT.1361
Matrix coefficients : BT.709-5, BT.1361, IEC 61966-2-4 709, SMPTE RP177

Audio #1
ID : 2
Format : FLAC
Format/Info : Free Lossless Audio Codec
Codec ID : A_FLAC
Duration : 3mn 37s
Bit rate mode : Variable
Channel(s) : 2 channels
Sampling rate : 48.0 KHz
Bit depth : 24 bits
Title : FLAC 2.0 1768 kbps
Writing library : libFLAC 1.2.1 (UTC 2007-09-17)
Language : Portuguese
Default : Yes
Forced : No

Audio #2
ID : 3
Format : AC-3
Format/Info : Audio Coding 3
Mode extension : CM (complete main)
Format settings, Endianness : Big
Codec ID : A_AC3
Duration : 3mn 37s
Bit rate mode : Constant
Bit rate : 640 Kbps
Channel(s) : 6 channels
Channel positions : Front: L C R, Side: L R, LFE
Sampling rate : 48.0 KHz
Bit depth : 16 bits
Compression mode : Lossy
Stream size : 16.6 MiB (7%)
Title : AC3 5.1 640 kbps
Language : Portuguese
Default : No
Forced : No


Трекер:  [ 20-Мар-2013 16:58 ]

  

Скачать .torrent

Размер .torrent файла 39 KB


Размер: 7.66 GB
Хэш (hash) релиза: 2b60fa36975e549967d846433aa20388f1800db5

Еще никто не оставлял запись к записи скачать торрент Paula Fernandes - Ao Vivo . Будь первым!

!Обратная связь