Скачать через торрент музыку 46th Annual CMA Awards 2012 бесплатно без регистрации torrent

Если у вас наблюдаются проблемы со скриншотами, переходом по ссылками, скачиванием торрентов - проблемы в блокировщике рекламы AdBlock. #хорошегоДня!


Статистика раздачи
Размер:  3.54 GB   |    Зарегистрирован:  4 года 6 месяцев   |    .torrent скачан:  45 раз   |   
Раздают:  1  
   
Загрузка...
 
Автор Сообщение

Galfimbul

avatar Galfimbul


46th Annual CMA Awards 2012

Жанр: Country, Pop
Продолжительность: 2h 10mn
Год выпуска: 2012

:

Jason Aldean, Luke Bryan, Eric Church – Opening Number
Tim McGraw – “One of Those Nights”
Miranda Lambert – “Fastest Girl in Town”
Zac Brown Band – “Goodbye in Her Eyes”
Dierks Bentley – “Tip it on Back”
The Band Perry – “Better Dig Two”
Eric Church – “Springsteen”
Eli Young Band – “Even If It Breaks Your Heart”
Taylor Swift – “Begin Again”
Little Big Town – “Pontoon”
Luke Bryan – “Kiss Tomorrow Goodbye”
Hunter Hayes – “Wanted”
Faith Hill – “American Heart”
Brad Paisley – “Southern Comfort Zone”
Brantley Gilbert – “Country Must Be Country Wide”
Keith Urban, Zac Brown Band – “Georgia Woods”
Carrie Underwood – “Blown Away”
Jason Aldean – “Take a Little Ride”
Kelly Clarkson, Vince Gill – “Don’t Rush”
Kenny Chesney – “Come Over”
Willie Nelson Tribute
Lady Antebellum – “Always On My Mind,” “Crazy”
Blake Shelton – “Whiskey River”
Faith Hill, Tim McGraw – “Good Hearted Woman”
Willie Nelson – “On the Road Again”

[b]Качество
: HDTVRip 720p
Контейнер: MKV
Видео кодек: H.264 (MPEG4-AVC)
Аудио кодек: AC3
Видео: AVC, 1280x720, 3419 Kbps, 29.970 fps
Аудио: AC3, 5.1, 48.0 KHz, 384 Kbps

Описание: Every year it’s a sight to behold, and the 46th Annual CMA Awards definitely didn’t disappoint tonight (November 1). With hosts Carrie Underwood and Brad Paisley helming the ceremony, the evening was packed full of great music, banter, and plenty of celebrity sightings. Top acts like Jason Aldean, Kelly Clarkson, Kenny Chesney, Keith Urban and Lifetime Achievement honoree Willie Nelson plus many more took the stage for fabulous performances.
ENTERTAINER OF THE YEAR
Jason Aldean
Kenny Chesney
Brad Paisley
WINNER: Blake Shelton
Taylor Swift

FEMALE VOCALIST OF THE YEAR
Kelly Clarkson
WINNER: Miranda Lambert
Martina McBride
Taylor Swift
Carrie Underwood

MALE VOCALIST OF THE YEAR
Jason Aldean
Luke Bryan
Eric Church
WINNER: Blake Shelton
Keith Urban

NEW ARTIST OF THE YEAR
Lee Brice
Brantley Gilbert
WINNER: Hunter Hayes
Love and Theft
Thompson Square

VOCAL GROUP OF THE YEAR
Eli Young Band
Lady Antebellum
WINNER: Little Big Town
The Band Perry
Zac Brown Band

VOCAL DUO OF THE YEAR
Bog and Rich
Love and Theft
Sugarland
The Civil Wars
WINNER: Thompson Square

SINGLE OF THE YEAR
“Dirt Road Anthem” Jason Aldean
“God Gave Me You” Blake Shelton
“Home” Dierks Bentley
WINNER: “Pontoon” Little Big Town
“Springsteen” Eric Church

ALBUM OF THE YEAR
WINNER: “Chief”/Eric Church
“Four the Record”/Miranda Lambert
“Home”/Dierks Bentley
“Own the Night”/Lady Antebellum
“Tailgates and Tanlines”/Luke Bryan

SONG OF THE YEAR
"Even If It Breaks Your Heart" Will Hoge and Eric Paslay
"God Gave Me You" Dave Barnes
"Home" Dan Wilson, Brett Beavers, and Dierks Bentley
WINNER: "Over You" Miranda Lambert and Blake Shelton
"Springsteen" Eric Church, Ryan Tyndell, and Jeff Hyde

MUSICAL EVENT OF THE YEAR
"Dixie Highway" Alan Jackson featuring Zac Brown
WINNER: "Feel Like A Rock Star" Kenny Chesney (duet with Tim McGraw)
"Roll Me Up and Smoke Me When I Die" Willie Nelson with Snoop Dogg, Kris Kristofferson and Jamey Johnson
"Safe & Sound" Taylor Swift (featuring The Civil Wars)
"Stuck On You" Lionel Richie (with Darius Rucker)

MUSIC VIDEO OF THE YEAR
"Come Over" Kenny Chesney
"Over You" Miranda Lambert
"Pontoon" Little Big Town
WINNER: "Red Solo Cup" Toby Keith
"Springsteen" Eric Church

MUSICIAN OF THE YEAR
Sam Bush Mandolin
Paul Franklin Steel Guitar
Dann Huff Guitar
Brent Mason Guitar
WINNER: Mac McAnally Guitar

LIFETIME ACHIEVEMENT AWARD
Willie Nelson
GeneralUnique ID : 27927375977502870426460651069117274110 (0x15029DF1814588CDFE635990EA4B97FE)Complete name : 46th.annual.cma.awards.2012.720p.hdtv.x264-2hd.mkvFormat : MatroskaFormat version : Version 2File size : 3.54 GiBDuration : 2h 10mnOverall bit rate : 3 880 KbpsEncoded date : UTC 2012-11-02 07:02:09Writing application : mkvmerge v2.7.0 ('Do It Again') built on Jul 2 2010 16:49:42Writing library : libebml v0.7.7 + libmatroska v0.8.1

VideoID : 1Format : AVCFormat/Info : Advanced Video CodecFormat profile : High@L4.1Format settings, CABAC : YesFormat settings, ReFrames : 5 framesCodec ID : V_MPEG4/ISO/AVCDuration : 2h 10mnBit rate : 3 419 KbpsWidth : 1 280 pixelsHeight : 720 pixelsDisplay aspect ratio : 16:9Frame rate mode : ConstantFrame rate : 29.970 fpsColor space : YUVChroma subsampling : 4:2:0Bit depth : 8 bitsScan type : ProgressiveBits/(Pixel*Frame) : 0.124Stream size : 3.12 GiB (88%)Writing library : x264 core 128 r2216 198a7eaEncoding settings : cabac=1 / ref=5 / deblock=1:0:0 / analyse=0x3:0x113 / me=umh / subme=8 / psy=1 / psy_rd=1.00:0.00 / mixed_ref=1 / me_range=16 / chroma_me=1 / trellis=1 / 8x8dct=1 / cqm=0 / deadzone=21,11 / fast_pskip=1 / chroma_qp_offset=-2 / threads=24 / lookahead_threads=4 / sliced_threads=0 / nr=0 / decimate=1 / interlaced=0 / bluray_compat=0 / constrained_intra=0 / bframes=3 / b_pyramid=2 / b_adapt=2 / b_bias=0 / direct=3 / weightb=1 / open_gop=0 / weightp=2 / keyint=250 / keyint_min=25 / scenecut=40 / intra_refresh=0 / rc_lookahead=50 / rc=crf / mbtree=1 / crf=22.0 / qcomp=0.60 / qpmin=0 / qpmax=69 / qpstep=4 / ip_ratio=1.40 / aq=1:1.00Language : EnglishDefault : YesForced : NoMatrix coefficients : BT.709

AudioID : 2Format : AC-3Format/Info : Audio Coding 3Mode extension : CM (complete main)Format settings, Endianness : BigCodec ID : A_AC3Duration : 2h 10mnBit rate mode : ConstantBit rate : 384 KbpsChannel(s) : 6 channelsChannel positions : Front: L C R, Side: L R, LFESampling rate : 48.0 KHzBit depth : 16 bitsCompression mode : LossyStream size : 359 MiB (10%)Default : YesForced : No


Трекер:  [ 20-Мар-2013 16:58 ]

  

Скачать .torrent

Размер .torrent файла 36 KB


Размер: 3.54 GB
Хэш (hash) релиза: 2f323b0aeb2b936ff63df5067de7756f157b930b

Торренты, похожие на 46th Annual CMA Awards 2012 скачать торрент

Форум Название Автор Размер S L Добавлен
Фольклор, Народная и Этническая музыка (video) ·· The 46th Annual CMA Awards 2012 (Various Artists) [2012, Country, HDTV 1080i] Galfimbul 1516765707614.13 GB 0 0 1361798518

16:21

25-Фев-13

Фольклор, Народная и Этническая музыка (video) ·· Taylor Swift - Begin Again (46th Annual CMA Awards) November 01, 2012 [Country, HDTV 720p] Galfimbul 369370744352 MB 0 0 1361798561

16:22

25-Фев-13

Еще никто не оставлял запись к записи скачать торрент 46th Annual CMA Awards 2012 . Будь первым!

!Обратная связь