Скачать через торрент музыку Taylor Swift - We Are Never Ever Getting Back Together бесплатно без регистрации torrent

Если у вас наблюдаются проблемы со скриншотами, переходом по ссылками, скачиванием торрентов - проблемы в блокировщике рекламы AdBlock. #хорошегоДня!


Статистика раздачи
Размер:  396 MB   |    Зарегистрирован:  4 года 6 месяцев   |    .torrent скачан:  43 раза   |   
Раздают:  1  
   
Загрузка...
 
Автор Сообщение

Galfimbul

avatar Galfimbul


Taylor Swift - We Are Never Ever Getting Back Together (MTV First Look)

Жанр: Pop, bubblegum pop
Продолжительность: 03:16
Год выпуска: 2012

Качество: HDTV 1080i
Контейнер: TS

Видео: MPEG2 1920x1080 16:9 15.7 Mbps 29.970 fps
Аудио: AC3 384 kbps 2 channels 48.0 KHz
GeneralID : 1 (0x1)Complete name : D:\Taylor Swift - We Are Never Ever Getting Back Together.tsFormat : MPEG-TSFile size : 396 MiBDuration : 3mn 16sOverall bit rate : 16.9 MbpsMaximum Overall bit rate : 35.5 Mbps

VideoID : 4113 (0x1011)Menu ID : 1 (0x1)Format : MPEG VideoFormat version : Version 2Format profile : Main@HighFormat settings, BVOP : YesFormat settings, Matrix : DefaultFormat settings, GOP : M=3, N=15Codec ID : 2Duration : 3mn 16sBit rate mode : VariableBit rate : 15.7 MbpsNominal bit rate : 18.0 MbpsWidth : 1 920 pixelsHeight : 1 080 pixelsDisplay aspect ratio : 16:9Frame rate : 29.970 fpsColor space : YUVChroma subsampling : 4:2:0Bit depth : 8 bitsScan type : InterlacedScan order : Top Field FirstCompression mode : LossyBits/(Pixel*Frame) : 0.252Stream size : 367 MiB (93%)

AudioID : 4352 (0x1100)Menu ID : 1 (0x1)Format : AC-3Format/Info : Audio Coding 3Mode extension : CM (complete main)Codec ID : 129Duration : 3mn 16sBit rate mode : ConstantBit rate : 384 KbpsChannel(s) : 2 channelsChannel positions : Front: L RSampling rate : 48.0 KHzBit depth : 16 bitsCompression mode : LossyDelay relative to video : -132msStream size : 9.01 MiB (2%)Language : English


Трекер:  [ 20-Мар-2013 16:58 ]

  

Скачать .torrent

Размер .torrent файла 16 KB


Размер: 396 MB
Хэш (hash) релиза: 7fcb65f1e36e4d14766bc93853f05cdd60e924db

Торренты, похожие на Taylor Swift - We Are Never Ever Getting Back Together скачать торрент

Форум Название Автор Размер S L Добавлен
Фольклор, Народная и Этническая музыка (video) ·· Taylor Swift - We Are Never Ever Getting Back Together (The X Factor UK) October 14, 2012 [Bubblegum pop, HDTV 1080i] Galfimbul 314981968300 MB 0 0 1361798592

16:23

25-Фев-13

Фольклор, Народная и Этническая музыка (video) ·· Taylor Swift - We Are Never Ever Getting Back Together (Live @ MTV VMA) September 6, 2012 [Pop, HDTV 1080i] Galfimbul 12095891801.13 GB 0 0 1361798588

16:23

25-Фев-13

Фольклор, Народная и Этническая музыка (video) ·· Taylor Swift - We Are Never Ever Getting Back Together (Dancing With The Stars) October 30, 2012 [Pop, HDTV 720p] Galfimbul 351233256335 MB 0 0 1361798584

16:23

25-Фев-13

Фольклор, Народная и Этническая музыка (video) ·· Taylor Swift - We Are Never Ever Getting Back Together (Live @ Katie Couric) October 26, 2012 [2012, Country pop, HDTV 1080i] Galfimbul 469148736447 MB 0 0 1361798580

16:23

25-Фев-13

Фольклор, Народная и Этническая музыка (video) ·· Taylor Swift - We Are Never Ever Getting Back Together (VH1) [2012, Pop, HDTVRip 1080p] Galfimbul 312726412298 MB 0 0 1361798373

16:19

25-Фев-13

Фольклор, Народная и Этническая музыка (video) ·· Taylor Swift - We Are Never Ever Getting Back Together (VA - NRJ Music Awards 2013. Live,TF [2013, Country, Pop, HDTV 1080i] Galfimbul 177020579169 MB 0 0 1361798298

16:18

25-Фев-13

Фольклор, Народная и Этническая музыка (video) ·· Taylor Swift - We Are Never Ever Getting Back Together( Live,Canal+,Le grand journal, la suite,28.01.2013) [2013, pop,country pop, HDTV 1080i] Galfimbul 369276368352 MB 0 0 1361798275

16:17

25-Фев-13

Фольклор, Народная и Этническая музыка (video) ·· Taylor Swift - We Are Never Ever Getting Back Together (Live @ SMAP×SMAP) January 21, 2013 [Pop, bubblegum pop, HDTV 1080i] Galfimbul 304296800290 MB 0 0 1361798266

16:17

25-Фев-13

Фольклор, Народная и Этническая музыка (video) ·· Taylor Swift - We Are Never Ever Getting Back Together (The 55th Annual Grammy Awards) February 10, 2013 [Bubblegum pop, HDTV 1080i] Galfimbul 18415545641.72 GB 0 0 1361798195

16:16

25-Фев-13

Еще никто не оставлял запись к записи скачать торрент Taylor Swift - We Are Never Ever Getting Back Together . Будь первым!

!Обратная связь