Скачать через торрент музыку Taylor Swift - We Are Never Ever Getting Back Together бесплатно без регистрации torrent

Если у вас наблюдаются проблемы со скриншотами, переходом по ссылками, скачиванием торрентов - проблемы в блокировщике рекламы AdBlock. #хорошегоДня!


Статистика раздачи
Размер:  300 MB   |    Зарегистрирован:  4 года 6 месяцев   |    .torrent скачан:  42 раза   |   
Раздают:  1  
   
Загрузка...
 
Автор Сообщение

Galfimbul

avatar Galfimbul


Taylor Swift - We Are Never Ever Getting Back Together (The X Factor UK) October 14, 2012

Жанр: Bubblegum pop
Продолжительность: 04:04
Год выпуска: 2012

Качество: HDTV 1080i
Контейнер: TS

Видео: AVC 1920x1080 16:9 9542 Kbps 25.000 fps
Аудио: AC3 256 Kbps 2 channels 48.0 KHz
GeneralID : 1 (0x1)Complete name : D:\Taylor Swift - We Never Ever Getting Back Together (The X Factor UK 2012-10-14).tsFormat : MPEG-TSFile size : 300 MiBDuration : 4mn 4sOverall bit rate : 10.3 Mbps

VideoID : 2362 (0x93A)Menu ID : 1 (0x1)Format : AVCFormat/Info : Advanced Video CodecFormat profile : Main@L4.0Format settings, CABAC : YesFormat settings, ReFrames : 4 framesFormat settings, GOP : M=1, N=24Codec ID : 27Duration : 4mn 4sBit rate : 9 542 KbpsWidth : 1 920 pixelsHeight : 1 080 pixelsDisplay aspect ratio : 16:9Frame rate : 25.000 fpsColor space : YUVChroma subsampling : 4:2:0Bit depth : 8 bitsScan type : InterlacedScan order : Top Field FirstBits/(Pixel*Frame) : 0.184Stream size : 278 MiB (93%)Color primaries : BT.709-5, BT.1361, IEC 61966-2-4, SMPTE RP177Transfer characteristics : BT.709-5, BT.1361Matrix coefficients : BT.709-5, BT.1361, IEC 61966-2-4 709, SMPTE RP177

AudioID : 2363 (0x93B)Menu ID : 1 (0x1)Format : AC-3Format/Info : Audio Coding 3Mode extension : CM (complete main)Codec ID : 6Duration : 4mn 4sBit rate mode : ConstantBit rate : 256 KbpsChannel(s) : 2 channelsChannel positions : Front: L RSampling rate : 48.0 KHzBit depth : 16 bitsCompression mode : LossyDelay relative to video : -40msStream size : 7.46 MiB (2%)Language : English

Text #1ID : 2340 (0x924)Menu ID : 1 (0x1)Format : DVB SubtitleCodec ID : 6Language : English

Text #2ID : 2372 (0x944)-100Menu ID : 1 (0x1)Format : TeletextLanguage : English

Text #3ID : 2372 (0x944)-888Menu ID : 1 (0x1)Format : Teletext SubtitleLanguage : English


Трекер:  [ 20-Мар-2013 16:58 ]

  

Скачать .torrent

Размер .torrent файла 12 KB


Размер: 300 MB
Хэш (hash) релиза: 27cf22030ffc4b4ea4eaecac9fb63df6f0009b39

Торренты, похожие на Taylor Swift - We Are Never Ever Getting Back Together скачать торрент

Форум Название Автор Размер S L Добавлен
Фольклор, Народная и Этническая музыка (video) ·· Taylor Swift - We Are Never Ever Getting Back Together (MTV First Look) [2012, Pop, bubblegum pop, HDTV 1080i] Galfimbul 415341444396 MB 0 0 1361798596

16:23

25-Фев-13

Фольклор, Народная и Этническая музыка (video) ·· Taylor Swift - We Are Never Ever Getting Back Together (Live @ MTV VMA) September 6, 2012 [Pop, HDTV 1080i] Galfimbul 12095891801.13 GB 0 0 1361798588

16:23

25-Фев-13

Фольклор, Народная и Этническая музыка (video) ·· Taylor Swift - We Are Never Ever Getting Back Together (Dancing With The Stars) October 30, 2012 [Pop, HDTV 720p] Galfimbul 351233256335 MB 0 0 1361798584

16:23

25-Фев-13

Фольклор, Народная и Этническая музыка (video) ·· Taylor Swift - We Are Never Ever Getting Back Together (Live @ Katie Couric) October 26, 2012 [2012, Country pop, HDTV 1080i] Galfimbul 469148736447 MB 0 0 1361798580

16:23

25-Фев-13

Фольклор, Народная и Этническая музыка (video) ·· Taylor Swift - We Are Never Ever Getting Back Together (VH1) [2012, Pop, HDTVRip 1080p] Galfimbul 312726412298 MB 0 0 1361798373

16:19

25-Фев-13

Фольклор, Народная и Этническая музыка (video) ·· Taylor Swift - We Are Never Ever Getting Back Together (VA - NRJ Music Awards 2013. Live,TF [2013, Country, Pop, HDTV 1080i] Galfimbul 177020579169 MB 0 0 1361798298

16:18

25-Фев-13

Фольклор, Народная и Этническая музыка (video) ·· Taylor Swift - We Are Never Ever Getting Back Together( Live,Canal+,Le grand journal, la suite,28.01.2013) [2013, pop,country pop, HDTV 1080i] Galfimbul 369276368352 MB 0 0 1361798275

16:17

25-Фев-13

Фольклор, Народная и Этническая музыка (video) ·· Taylor Swift - We Are Never Ever Getting Back Together (Live @ SMAP×SMAP) January 21, 2013 [Pop, bubblegum pop, HDTV 1080i] Galfimbul 304296800290 MB 0 0 1361798266

16:17

25-Фев-13

Фольклор, Народная и Этническая музыка (video) ·· Taylor Swift - We Are Never Ever Getting Back Together (The 55th Annual Grammy Awards) February 10, 2013 [Bubblegum pop, HDTV 1080i] Galfimbul 18415545641.72 GB 0 0 1361798195

16:16

25-Фев-13

Еще никто не оставлял запись к записи скачать торрент Taylor Swift - We Are Never Ever Getting Back Together . Будь первым!

!Обратная связь