Скачать через торрент музыку Taylor Swift - I Knew You Were Trouble бесплатно без регистрации torrent

Если у вас наблюдаются проблемы со скриншотами, переходом по ссылками, скачиванием торрентов - проблемы в блокировщике рекламы AdBlock. #хорошегоДня!


Статистика раздачи
Размер:  210 MB   |    Зарегистрирован:  4 года 6 месяцев   |    .torrent скачан:  41 раз   |   
Раздают:  1  
   
Загрузка...
 
Автор Сообщение

Galfimbul

avatar Galfimbul


Taylor Swift - I Knew You Were Trouble (AMA 2012)

Жанр: Pop
Продолжительность: 00:04:30
Год выпуска: 2012

Качество: HDTVRip 720p
Контейнер: MKV
Видео кодек: AVC
Аудио кодек: AC3
Видео: AVC Video at 5989 Kbps 1280 x 720 at 29.970 fps
Аудио: AC3 Audio at 384 Kbps 6 channels, 48.0 KHz
Format : MatroskaFile size : 210 MiBDuration : 4mn 30sOverall bit rate : 6 503 KbpsEncoded date : UTC 2012-11-20 18:07:10Writing application : mkvmerge v5.3.0 ('I could have danced') built on Feb 9 2012 10:38:07Writing library : libebml v1.2.3 + libmatroska v1.3.0

VideoID : 1Format : AVCFormat/Info : Advanced Video CodecFormat profile : High@L4.1Format settings, CABAC : YesFormat settings, ReFrames : 5 framesMuxing mode : Header strippingCodec ID : V_MPEG4/ISO/AVCDuration : 4mn 30sBit rate : 5 989 KbpsWidth : 1 280 pixelsHeight : 720 pixelsDisplay aspect ratio : 16:9Frame rate : 29.970 fpsColor space : YUVChroma subsampling : 4:2:0Bit depth : 8 bitsScan type : ProgressiveBits/(Pixel*Frame) : 0.217Stream size : 193 MiB (92%)Language : EnglishMatrix coefficients : BT.709-5, BT.1361, IEC 61966-2-4 709, SMPTE RP177

AudioID : 2Format : AC-3Format/Info : Audio Coding 3Mode extension : CM (complete main)Muxing mode : Header strippingCodec ID : A_AC3Duration : 4mn 30sBit rate mode : ConstantBit rate : 384 KbpsChannel(s) : 6 channelsChannel positions : Front: L C R, Side: L R, LFESampling rate : 48.0 KHzBit depth : 16 bitsCompression mode : LossyDelay relative to video : 18msStream size : 12.4 MiB (6%)


Трекер:  [ 20-Мар-2013 16:58 ]

  

Скачать .torrent

Размер .torrent файла 17 KB


Размер: 210 MB
Хэш (hash) релиза: 650a2366477b60c1da72265644b425d14f51c476

Торренты, похожие на Taylor Swift - I Knew You Were Trouble скачать торрент

Форум Название Автор Размер S L Добавлен
Фольклор, Народная и Этническая музыка (video) ·· Taylor Swift - I Knew You Were Trouble (Palladia) [2012, Electropop, popstep, pop rock, HDTV 1080i] Galfimbul 445247488425 MB 0 0 1361798402

16:20

25-Фев-13

Фольклор, Народная и Этническая музыка (video) ·· Taylor Swift - I Knew You Were Trouble (Live at the Brit Awards 2013) [2013, Country, Pop, HDTVRip 720p] Galfimbul 270547745258 MB 0 0 1361798201

16:16

25-Фев-13

Еще никто не оставлял запись к записи скачать торрент Taylor Swift - I Knew You Were Trouble . Будь первым!

!Обратная связь