Скачать через торрент музыку Taylor Swift - VH1 Storytellers бесплатно без регистрации torrent

Если у вас наблюдаются проблемы со скриншотами, переходом по ссылками, скачиванием торрентов - проблемы в блокировщике рекламы AdBlock. #хорошегоДня!


Статистика раздачи
Размер:  4.83 GB   |    Зарегистрирован:  4 года 6 месяцев   |    .torrent скачан:  46 раз   |   
Раздают:  1  
   
Загрузка...
 
Автор Сообщение

Galfimbul

avatar Galfimbul


Taylor Swift - VH1 Storytellers
Жанр: Country, Country Pop
Продолжительность: 00:42:00
Год выпуска: 2012
Описание: Выступление Taylor Swift в передаче Storytellers телеканала VH1 в Harvey Mudd College, Claremont, California, 15 октября 2012 г. Запись эфира 11.11.2012.
Треклист:

01. You belong with me
02. Red
03. Ours
04. Mean
05. We Are Never Ever Getting Back Together
06. Our Song
07. Love Story
Качество: HDTV 1080i
Контейнер: TS
Видео кодек: MPEG2
Аудио кодек: AC3
Видео: 1920x1080 (16:9), 15.3 Mbps, 29.970 fps
Аудио: AC3, 384 Kbps, 6 ch, 48.0 KHz
GeneralID : 1 (0x1)Complete name : \Storytellers - Taylor Swift 1080i HDTV DD5.1 MPEG2-TrollHD.tsFormat : MPEG-TSFile size : 4.83 GiBDuration : 42mn 0sOverall bit rate mode : VariableOverall bit rate : 16.5 Mbps

VideoID : 524 (0x20C)Menu ID : 1 (0x1)Format : MPEG VideoFormat version : Version 2Format profile : Main@HighFormat settings, BVOP : YesFormat settings, Matrix : CustomFormat settings, GOP : M=3, N=15Codec ID : 2Duration : 42mn 0sBit rate mode : VariableBit rate : 15.3 MbpsMaximum bit rate : 18.0 MbpsWidth : 1 920 pixelsHeight : 1 080 pixelsDisplay aspect ratio : 16:9Frame rate : 29.970 fpsColor space : YUVChroma subsampling : 4:2:0Bit depth : 8 bitsScan type : InterlacedScan order : Top Field FirstCompression mode : LossyBits/(Pixel*Frame) : 0.246Stream size : 4.48 GiB (93%)

AudioID : 523 (0x20B)Menu ID : 1 (0x1)Format : AC-3Format/Info : Audio Coding 3Mode extension : CM (complete main)Format settings, Endianness : BigCodec ID : 129Duration : 42mn 0sBit rate mode : ConstantBit rate : 384 KbpsChannel(s) : 6 channelsChannel positions : Front: L C R, Side: L R, LFESampling rate : 48.0 KHzBit depth : 16 bitsCompression mode : LossyStream size : 115 MiB (2%)Language : English

Text #1ID : 524 (0x20C)-CC1Menu ID : 1 (0x1)Format : EIA-608Muxing mode : A/53 / DTVCC TransportMuxing mode, more info : Muxed in Video #1Duration : 42mn 0sBit rate mode : ConstantStream size : 0.00 Byte (0%)

Text #2ID : 524 (0x20C)-1Menu ID : 1 (0x1)Format : EIA-708Muxing mode : A/53 / DTVCC TransportMuxing mode, more info : Muxed in Video #1Duration : 42mn 0sBit rate mode : ConstantStream size : 0.00 Byte (0%)


Трекер:  [ 20-Мар-2013 16:58 ]

  

Скачать .torrent

Размер .torrent файла 24 KB


Размер: 4.83 GB
Хэш (hash) релиза: ca52a1f264d1f1e50bc9e95cac0a73a5cb6122ef

Еще никто не оставлял запись к записи скачать торрент Taylor Swift - VH1 Storytellers . Будь первым!

!Обратная связь