Скачать через торрент музыку Taylor Swift - Red бесплатно без регистрации torrent

Если у вас наблюдаются проблемы со скриншотами, переходом по ссылками, скачиванием торрентов - проблемы в блокировщике рекламы AdBlock. #хорошегоДня!


Статистика раздачи
Размер:  515 MB   |    Зарегистрирован:  4 года 5 месяцев   |    .torrent скачан:  42 раза   |   
Раздают:  1  
   
Загрузка...
 
Автор Сообщение

Galfimbul

avatar Galfimbul


Taylor Swift - Red (The Late Show with David Letterman) October 23, 2012

Жанр: Country pop, pop rock
Продолжительность: 04:13
Год выпуска: 2012

Качество: HDTV 1080i
Контейнер: TS

Видео: MPEG2 1920x1080 16:9 15.8 Mbps 29.970 fps
Аудио: AC3 384 Kbps 6 channels 48.0 KHz
GeneralID : 1 (0x1)Complete name : D:\Taylor Swift - Red (The Late Show with David Letterman 23.10.2012).tsFormat : MPEG-TSFile size : 515 MiBDuration : 4mn 13sOverall bit rate : 17.0 Mbps

VideoID : 2048 (0x800)Menu ID : 1 (0x1)Format : MPEG VideoFormat version : Version 2Format profile : Main@HighFormat settings, BVOP : YesFormat settings, Matrix : DefaultCodec ID : 2Duration : 4mn 13sBit rate mode : VariableBit rate : 15.8 MbpsNominal bit rate : 80.0 MbpsWidth : 1 920 pixelsHeight : 1 080 pixelsDisplay aspect ratio : 16:9Frame rate : 29.970 fpsColor space : YUVChroma subsampling : 4:2:0Bit depth : 8 bitsScan type : InterlacedScan order : Top Field FirstCompression mode : LossyBits/(Pixel*Frame) : 0.254Stream size : 477 MiB (93%)

AudioID : 2049 (0x801)Menu ID : 1 (0x1)Format : AC-3Format/Info : Audio Coding 3Mode extension : CM (complete main)Codec ID : 129Duration : 4mn 13sBit rate mode : ConstantBit rate : 384 KbpsChannel(s) : 6 channelsChannel positions : Front: L C R, Side: L R, LFESampling rate : 48.0 KHzBit depth : 16 bitsCompression mode : LossyStream size : 11.6 MiB (2%)Language : English

Text #1ID : 2048 (0x800)608-1Menu ID : 1 (0x1)Format : EIA-608Muxing mode : A/53 / DTVCC TransportMuxing mode, more info : Muxed in Video #1Duration : 4mn 13sStream size : 0.00 Byte (0%)

Text #2ID : 2048 (0x800)1Menu ID : 1 (0x1)Format : EIA-708Muxing mode : A/53 / DTVCC TransportMuxing mode, more info : Muxed in Video #1Duration : 4mn 13sStream size : 0.00 Byte (0%)


Трекер:  [ 20-Мар-2013 16:58 ]

  

Скачать .torrent

Размер .torrent файла 10 KB


Размер: 515 MB
Хэш (hash) релиза: c854faaf478520c7d82fe9e611714b99ec4b9af8

Торренты, похожие на Taylor Swift - Red скачать торрент

Форум Название Автор Размер S L Добавлен
Фольклор, Народная и Этническая музыка ·· (Pop, Country) Taylor Swift - Red (Target Exclusive Deluxe Edition) - 2012 , FLAC (tracks+.cue), lossless Galfimbul 611271871583 MB 0 0 1356515820

12:57

26-Дек-12

Фольклор, Народная и Этническая музыка ·· (Country, Pop) Taylor Swift - Red (Deluxe Edition) - 2012, MP3, 320 kbps Galfimbul 218954817209 MB 0 0 1351009860

19:31

23-Окт-12

Фольклор, Народная и Этническая музыка ·· (Pop Rock) Taylor Swift - Red (2012), MP3, VBR 204-274 kbps Galfimbul 120760843115 MB 0 0 1351009860

19:31

23-Окт-12

Еще никто не оставлял запись к записи скачать торрент Taylor Swift - Red . Будь первым!

!Обратная связь