Скачать через торрент музыку Mighty Oaks - Live At Reeperbahn Festival бесплатно без регистрации torrent

Если у вас наблюдаются проблемы со скриншотами, переходом по ссылками, скачиванием торрентов - проблемы в блокировщике рекламы AdBlock. #хорошегоДня!


Статистика раздачи
Размер:  777 MB   |    Зарегистрирован:  4 года 6 месяцев   |    .torrent скачан:  38 раз   |   
Раздают:  1  
   
Загрузка...
 
Автор Сообщение

Galfimbul

avatar Galfimbul


Mighty Oaks - Live At Reeperbahn Festival

Жанр: Indie-folk
Продолжительность: 00:25:26
Год выпуска: 2012

Состав:
Claudio Donzelli (IT)
Ian Hooper (US)
Craig Saunders (UK)

Треклист:

01. The Great Northwest
02. Shells
03. The Crow Flies A Straight Line
04. Rainier
05. Horse
06. When I Dream I See

Качество: HDTVRip 720p
Контейнер: MKV
Видео кодек: H.264
Аудио кодек: AC3
Видео: AVC, 1280x712, 16:9, 3735 Kbps, 25 fps
Аудио: AC3, 448 Kbps, 48 KHz, 2 ch
GeneralUnique ID : 227154524706493084522082405314265330010 (0xAAE45EBFC29CCF04957E6AB897CBB15A)Complete name : K:\Mighty_Oaks-Reeperbahn_Festival_(2012)-720p-x264-2012-SRPx\mighty_oaks-reeperbahn_festival_(2012)-720p-x264-2012-srpx.mkvFormat : MatroskaFormat version : Version 2File size : 777 MiBDuration : 25mn 26sOverall bit rate : 4 268 KbpsEncoded date : UTC 2012-11-22 15:42:47Writing application : mkvmerge v5.8.0 ('No Sleep / Pillow') built on Sep 2 2012 15:37:04Writing library : libebml v1.2.3 + libmatroska v1.3.0

VideoID : 1Format : AVCFormat/Info : Advanced Video CodecFormat profile : High@L4.1Format settings, CABAC : YesFormat settings, ReFrames : 5 framesCodec ID : V_MPEG4/ISO/AVCDuration : 25mn 26sBit rate : 3 735 KbpsWidth : 1 280 pixelsHeight : 712 pixelsDisplay aspect ratio : 16:9Frame rate : 25.000 fpsColor space : YUVChroma subsampling : 4:2:0Bit depth : 8 bitsScan type : ProgressiveBits/(Pixel*Frame) : 0.164Stream size : 680 MiB (88%)Writing library : x264 core 129 r2230 1cffe9fEncoding settings : cabac=1 / ref=5 / deblock=1:-1:-1 / analyse=0x3:0x133 / me=umh / subme=9 / psy=1 / psy_rd=1.00:0.00 / mixed_ref=1 / me_range=24 / chroma_me=1 / trellis=1 / 8x8dct=1 / cqm=0 / deadzone=21,11 / fast_pskip=1 / chroma_qp_offset=-2 / threads=6 / lookahead_threads=1 / sliced_threads=0 / nr=0 / decimate=1 / interlaced=0 / bluray_compat=0 / constrained_intra=0 / bframes=16 / b_pyramid=2 / b_adapt=2 / b_bias=0 / direct=3 / weightb=1 / open_gop=0 / weightp=2 / keyint=250 / keyint_min=25 / scenecut=40 / intra_refresh=0 / rc_lookahead=60 / rc=crf / mbtree=1 / crf=20.0 / qcomp=0.60 / qpmin=0 / qpmax=69 / qpstep=4 / ip_ratio=1.40 / aq=1:1.00Default : YesForced : No

AudioID : 2Format : AC-3Format/Info : Audio Coding 3Mode extension : CM (complete main)Format settings, Endianness : BigCodec ID : A_AC3Duration : 25mn 26sBit rate mode : ConstantBit rate : 448 KbpsChannel(s) : 2 channelsChannel positions : Front: L RSampling rate : 48.0 KHzBit depth : 16 bitsCompression mode : LossyDelay relative to video : 100msStream size : 81.5 MiB (10%)Default : YesForced : No


Трекер:  [ 20-Мар-2013 20:42 ]

  

Скачать .torrent

Размер .torrent файла 15 KB


Размер: 777 MB
Хэш (hash) релиза: 5a205a1d2ca8bcea4349af01d9ddb019cd3b3587

Еще никто не оставлял запись к записи скачать торрент Mighty Oaks - Live At Reeperbahn Festival . Будь первым!

!Обратная связь