Скачать через торрент музыку CMT Crossroads - Randy Travis and The Avett Brothers бесплатно без регистрации torrent

Если у вас наблюдаются проблемы со скриншотами, переходом по ссылками, скачиванием торрентов - проблемы в блокировщике рекламы AdBlock. #хорошегоДня!


Статистика раздачи
Размер:  4.66 GB   |    Зарегистрирован:  4 года 6 месяцев   |    .torrent скачан:  43 раза   |   
Раздают:  1  
   
Загрузка...
 
Автор Сообщение

Galfimbul

avatar Galfimbul


CMT Crossroads - Randy Travis and The Avett Brothers

Жанр: Country, Indie, Folk
Продолжительность: 00:39:30
Год выпуска: 2012

Описание: Country music staple Randy Travis joins forces with the folksy Avett Brothers on CMT Crossroads. Crossroads pairs two artists we love and provides the chance for them to try on the other group’s songs for size. This episode will actually be the first time Travis has met the Avett Brothers.
We’re excited to hear some of our favorite country songs restyled by the Avett Brothers, and Travis will take his turn with some of their folk/pop jams. This is for real, y’all!

Треклист:

1. Deeper Than the Holler
2. Murder In The City
3. January Wedding
4. Three Wooden Crosses
5. I And Love And You
6. February Seven
7. Forever and Ever, Amen

Релиз от спасибо Cisco Качество: HDTV 1080i
Контейнер: TS
Видео кодек: MPEG2
Аудио кодек: AC3
Видео: MPEG2, 1920x1080i, 15.6 Mbps, 29.97 fps
Аудио: AC3, 384 Kbps, 48 KHz, 6 ch
GeneralID : 1 (0x1)Complete name : K:\Crossroads - Randy Travis and The Avett Brothers 1080i HDTV DD2.0 MPEG2-TrollHD.tsFormat : MPEG-TSFile size : 4.66 GiBDuration : 39mn 30sOverall bit rate mode : VariableOverall bit rate : 16.9 Mbps

VideoID : 529 (0x211)Menu ID : 1 (0x1)Format : MPEG VideoFormat version : Version 2Format profile : Main@HighFormat settings, BVOP : YesFormat settings, Matrix : CustomFormat settings, GOP : M=3, N=15Codec ID : 2Duration : 39mn 30sBit rate mode : VariableBit rate : 15.6 MbpsMaximum bit rate : 18.0 MbpsWidth : 1 920 pixelsHeight : 1 080 pixelsDisplay aspect ratio : 16:9Frame rate : 29.970 fpsColor space : YUVChroma subsampling : 4:2:0Bit depth : 8 bitsScan type : InterlacedScan order : Top Field FirstCompression mode : LossyBits/(Pixel*Frame) : 0.252Stream size : 4.32 GiB (93%)

AudioID : 528 (0x210)Menu ID : 1 (0x1)Format : AC-3Format/Info : Audio Coding 3Mode extension : CM (complete main)Format settings, Endianness : BigCodec ID : 129Duration : 39mn 30sBit rate mode : ConstantBit rate : 384 KbpsChannel(s) : 6 channelsChannel positions : Front: L C R, Side: L R, LFESampling rate : 48.0 KHzBit depth : 16 bitsCompression mode : LossyStream size : 109 MiB (2%)Language : English

Text #1ID : 529 (0x211)-CC1Menu ID : 1 (0x1)Format : EIA-608Muxing mode : A/53 / DTVCC TransportMuxing mode, more info : Muxed in Video #1Duration : 39mn 30sBit rate mode : ConstantStream size : 0.00 Byte (0%)

Text #2ID : 529 (0x211)-CC4Menu ID : 1 (0x1)Format : EIA-608Muxing mode : A/53 / DTVCC TransportMuxing mode, more info : Muxed in Video #1Duration : 39mn 30sBit rate mode : ConstantStream size : 0.00 Byte (0%)

Text #3ID : 529 (0x211)-1Menu ID : 1 (0x1)Format : EIA-708Muxing mode : A/53 / DTVCC TransportMuxing mode, more info : Muxed in Video #1Duration : 39mn 30sBit rate mode : ConstantStream size : 0.00 Byte (0%)


Трекер:  [ 20-Мар-2013 16:58 ]

  

Скачать .torrent

Размер .torrent файла 12 KB


Размер: 4.66 GB
Хэш (hash) релиза: bcfb17635d0d27d70ceffa35503ec9e982be124f

Еще никто не оставлял запись к записи скачать торрент CMT Crossroads - Randy Travis and The Avett Brothers . Будь первым!

!Обратная связь