Скачать через торрент музыку Taylor Swift - State Of Grace бесплатно без регистрации torrent

Если у вас наблюдаются проблемы со скриншотами, переходом по ссылками, скачиванием торрентов - проблемы в блокировщике рекламы AdBlock. #хорошегоДня!


Статистика раздачи
Размер:  261 MB   |    Зарегистрирован:  4 года 6 месяцев   |    .torrent скачан:  46 раз   |   
Раздают:  1  
   
Загрузка...
 
Автор Сообщение

Galfimbul

avatar Galfimbul


Taylor Swift - State Of Grace (The X Factor US) November 15, 2012

Жанр: Arena rock, alternative rock
Продолжительность: 03:57
Год выпуска: 2012

Качество: HDTVRip 720p
Контейнер: MKV

Видео: AVC 1280x712 16:9 8572 Kbps 59.940 fps
Аудио: AC3 448 Kbps 6 channels 48.0 KHz
GeneralUnique ID : 189812132155736765708055674018544680677 (0x8ECC7CA64F12944B8C220BBF1F42FEE5)Complete name : D:\Taylor Swift - State Of Grace (The X Factor US 15.11.2012).mkvFormat : MatroskaFile size : 261 MiBDuration : 3mn 57sOverall bit rate : 9 203 KbpsEncoded date : UTC 2012-11-16 05:35:47Writing application : mkvmerge v5.8.0 ('No Sleep / Pillow') built on Sep 2 2012 15:37:04Writing library : libebml v1.2.3 + libmatroska v1.3.0

VideoID : 1Format : AVCFormat/Info : Advanced Video CodecFormat profile : High@L4.1Format settings, CABAC : YesFormat settings, ReFrames : 5 framesFormat settings, GOP : M=1, N=57Codec ID : V_MPEG4/ISO/AVCDuration : 3mn 57sBit rate : 8 572 KbpsWidth : 1 280 pixelsHeight : 712 pixelsDisplay aspect ratio : 16:9Original display aspect ratio : 16:9Frame rate : 59.940 fpsColor space : YUVChroma subsampling : 4:2:0Bit depth : 8 bitsScan type : ProgressiveBits/(Pixel*Frame) : 0.157Stream size : 243 MiB (93%)Writing library : x264 core 129 r2230 1cffe9fEncoding settings : cabac=1 / ref=5 / deblock=1:0:0 / analyse=0x3:0x113 / me=umh / subme=9 / psy=1 / psy_rd=1.00:1.00 / mixed_ref=1 / me_range=24 / chroma_me=1 / trellis=2 / 8x8dct=1 / cqm=0 / deadzone=21,11 / fast_pskip=0 / chroma_qp_offset=-4 / threads=12 / lookahead_threads=2 / sliced_threads=0 / nr=0 / decimate=1 / interlaced=0 / bluray_compat=0 / constrained_intra=0 / bframes=16 / b_pyramid=2 / b_adapt=1 / b_bias=0 / direct=1 / weightb=1 / open_gop=0 / weightp=2 / keyint=250 / keyint_min=25 / scenecut=40 / intra_refresh=0 / rc_lookahead=40 / rc=crf / mbtree=1 / crf=21.0 / qcomp=0.60 / qpmin=0 / qpmax=69 / qpstep=4 / ip_ratio=1.40 / aq=1:1.00Language : English

AudioID : 2Format : AC-3Format/Info : Audio Coding 3Mode extension : CM (complete main)Codec ID : A_AC3Duration : 3mn 57sBit rate mode : ConstantBit rate : 448 KbpsChannel(s) : 6 channelsChannel positions : Front: L C R, Side: L R, LFESampling rate : 48.0 KHzBit depth : 16 bitsCompression mode : LossyStream size : 12.7 MiB (5%)Language : English


Трекер:  [ 20-Мар-2013 16:58 ]

  

Скачать .torrent

Размер .torrent файла 10 KB


Размер: 261 MB
Хэш (hash) релиза: af504100657d024934cd98e33a854871024b5c89

Еще никто не оставлял запись к записи скачать торрент Taylor Swift - State Of Grace . Будь первым!

!Обратная связь