Скачать через торрент музыку VA - Презентация альбома - Концерт " Всем ветрам скажу". Песни на стихи Светланы Ковалевой. бесплатно без регистрации torrent

Если у вас наблюдаются проблемы со скриншотами, переходом по ссылками, скачиванием торрентов - проблемы в блокировщике рекламы AdBlock. #хорошегоДня!


Статистика раздачи
Размер:  4.26 GB   |    Зарегистрирован:  4 года 7 месяцев   |    .torrent скачан:  50 раз   |   
Раздают:  1  
   
Загрузка...
 
Автор Сообщение

Galfimbul

avatar Galfimbul


Презентация альбома - Концерт " Всем ветрам скажу". Песни на стихи Светланы Ковалевой.

Страна: Россия
Жанр: Романс, лирическая песня, баллады.
Продолжительность: 1:57:54
Год выпуска: 2012 г.
Описание: Концерт 23 сентября 2012г. в Москве в Светлановском зале Московского Международного Дома Музыки

Светлана Ковалева - поэт, автор лирических песен и романсов, лауреат международного фестиваля "Авторская романсиада -2011", победитель телевизионного конкурса "Романс XXI век" на телеканале "Культура", обладательница Гран-при Международного конкурса "Весна романса" в номинации "Автор романса".

В концерте прозвучали новые песни, романсы, баллады на стихи Светланы КОВАЛЕВОЙ, музыку Валентины ПОНОМАРЕВОЙ, Сергея БЕЛОГОЛОВА, Евгения ГОРА, Александра ИВАНОВА, Михаила МАШКАУЦАНА, Вячеслава СЕМЕНОВА, Владимира БАГРОВА, Алексея СИДОРОВА, Олега КУРИЛО.
В концерте приняли участие:
народная артистка России Надежда БАБКИНА, народный артист России Сергей ЗАХАРОВ, ЗАРА, Галина КОВЗЕЛЬ, Евгений ЮЖИН, Ансамбль «БАРХАТНЫЙ СЕЗОН», заслуженная артистка России Галина УЛЕТОВА, Инна РАЗУМИХИНА, Фаина НИКОЛАС, Юлия ЗИГАНШИНА, Алена ПЕТРОВСКАЯ


Вела программу руководитель проекта "Петербургский романс" - Галина КОВЗЕЛЬ
Саунд-продюсер концерта – лауреат международных конкурсов - Татьяна СОЛНЫШКИНА
Звукорежиссер - Александр МИХЛИН

ЭСТРАДНО-СИМФОНИЧЕСКИЙ ОРКЕСТР -дирижер заслуженный артист России - Виктор ЛУЦЕНКО
Оркестровки, аранжировки- Вячеслав СЕРЖАНОВ, Юрий КРЫЛОВ, Алексей СИДОРОВ, Мария МОСКАЛЕНКО.

Треклист:

1 отделение:

1. Фаина НИКОЛАС «Воля вольная», музыка Вячеслав Семенов
2. Инна РАЗУМИХИНА «Колесики», музыка Александр Иванов
3. Инна РАЗУМИХИНА «Без него мне теперь», музыка Владимир Багров
4. Алена ПЕТРОВСКАЯ «Потеряла утром я одну сережку», музыка Сергей Белоголов
5. Галина КОВЗЕЛЬ «Сердце мое», музыка Сергей Белоголов
6. З.а. России Галина УЛЕТОВА «Вы мне гадали по руке», музыка Сергей Белоголов
7. Галина УЛЕТОВА «Не гляди на меня некрасивую» , музыка Вячеслав Семенов
8. Евгений ЮЖИН «Через поле дорога лежит», музыка Михаил Машкауцан
9. Евгений ЮЖИН «Когда взорвется сердце от невзгод», музыка Сергей Белоголов
10. Н.а. России Надежда БАБКИНА «Дай на тебя налюбоваться» , музыка Сергей Белоголов
11. Надежда БАБКИНА «Я русская» , музыка Евгений Гор

2 отделение:

12. «БАРХАТНЫЙ СЕЗОН» «Бабье лето», музыка Сергей Белоголов
13. «БАРХАТНЫЙ СЕЗОН» «Я на белой рубашке золотом», , музыка Сергей Белоголов
14. Юлия ЗИГАНШИНА «Легкий, милый роман», музыка Александр Иванов
15. Н.а. России Сергей ЗАХАРОВ «Пропасть меж нами», музыка Михаил Машкауцан
16. Сергей ЗАХАРОВ «Клонит голову белая вишня», музыка Александр Иванов
17. ЗАРА «Августа начало», музыка Алексей Сидоров
18. ЗАРА «Я припомню, как пахнут левкои», музыка Сергей Белоголов
19 Галина КОВЗЕЛЬ «Он уехал», музыка Валентина Пономарева
20. Фаина НИКОЛАС «Осень» , музыка Сергей Белоголов
21. Фаина НИКОЛАС «Вороненок», музыка Михаил Машкауцан
22. Галина КОВЗЕЛЬ «То зимы ждала» , музыка Сергей Белоголов
23. «БАРХАТНЫЙ СЕЗОН» «Сумерки», музыка Олег Курило

Качество: HDRip
Контейнер: MPEG4
Видео кодек: mp42
Аудио кодек: AAC
Видео: mp42, 1 280х720, 16:9, 5 039 Kbps, 25.000 fps
Аудио: AAC Version 4 - 128-285 kbps, 48 kHz, stereo 2
Format : MPEG-4
Format profile : Base Media / Version 2
Codec ID : mp42
File size : 4.26 GiB
Duration : 1h 57mn
Overall bit rate : 5 170 Kbps
Encoded date : UTC 2012-12-26 22:09:29
Tagged date : UTC 2012-12-26 22:09:29

Video
ID : 1
Format : MPEG-4 Visual
Format profile : Advanced Simple@L5
Format settings, BVOP : No
Format settings, QPel : No
Format settings, GMC : No warppoints
Format settings, Matrix : Default (H.263)
Codec ID : 20
Duration : 1h 57mn
Bit rate mode : Variable
Bit rate : 5 039 Kbps
Maximum bit rate : 31.2 Mbps
Width : 1 280 pixels
Height : 720 pixels
Display aspect ratio : 16:9
Frame rate mode : Constant
Frame rate : 25.000 fps
Resolution : 8 bits
Colorimetry : 4:2:0
Scan type : Progressive
Bits/(Pixel*Frame) : 0.219
Stream size : 4.15 GiB (97%)
Language : English
Encoded date : UTC 2012-12-26 22:09:29
Tagged date : UTC 2012-12-26 22:09:29

Audio
ID : 2
Format : AAC
Format/Info : Advanced Audio Codec
Format version : Version 4
Format profile : LC
Format settings, SBR : No
Codec ID : 40
Duration : 1h 57mn
Bit rate mode : Variable
Bit rate : 128 Kbps
Maximum bit rate : 285 Kbps
Channel(s) : 2 channels
Channel positions : L R
Sampling rate : 48.0 KHz
Stream size : 108 MiB (2%)
Language : English
Encoded date : UTC 2012-12-26 22:09:29
Tagged date : UTC 2012-12-26 22:09:29


Трекер:  [ 20-Мар-2013 16:58 ]

  

Скачать .torrent

Размер .torrent файла 11 KB


Размер: 4.26 GB
Хэш (hash) релиза: 7de0c81d6b8647036228eafa714250d297a4312b

Еще никто не оставлял запись к записи скачать торрент VA - Презентация альбома - Концерт " Всем ветрам скажу". Песни на стихи Светланы Ковалевой. . Будь первым!

!Обратная связь