Скачать через торрент музыку Taylor Swift - Mean бесплатно без регистрации torrent

Если у вас наблюдаются проблемы со скриншотами, переходом по ссылками, скачиванием торрентов - проблемы в блокировщике рекламы AdBlock. #хорошегоДня!


Статистика раздачи
Размер:  319 MB   |    Зарегистрирован:  4 года 6 месяцев   |    .torrent скачан:  42 раза   |   
Раздают:  1  
   
Загрузка...
 
Автор Сообщение

Galfimbul

avatar Galfimbul


Taylor Swift - Mean (The 54th Annual Grammy Awards) February 12, 2012

Жанр: Country
Продолжительность: 04:32
Год выпуска: 2012

Качество: HDTV 720p
Контейнер: MKV

Видео: AVC 1280x720 16:9 9 245 Kbps 29.970 fps
Аудио: AC3 384 Kbps 6 channels 48.0 KHz
GeneralUnique ID : 185230276964117026149192271666330318743 (0x8B5A0DBF5D314B099505DEC61271B797)Complete name : D:\Taylor Swift - Mean (The 54th Annual Grammy Awards 2012).mkvFormat : MatroskaFile size : 319 MiBDuration : 4mn 32sOverall bit rate : 9 824 KbpsEncoded date : UTC 2012-02-14 05:37:25Writing application : mkvmerge v5.3.0 ('I could have danced') built on Feb 9 2012 10:38:07Writing library : libebml v1.2.3 + libmatroska v1.3.0

VideoID : 1Format : AVCFormat/Info : Advanced Video CodecFormat profile : High@L4.1Format settings, CABAC : YesFormat settings, ReFrames : 5 framesCodec ID : V_MPEG4/ISO/AVCDuration : 4mn 32sBit rate : 9 245 KbpsWidth : 1 280 pixelsHeight : 720 pixelsDisplay aspect ratio : 16:9Frame rate : 29.970 fpsColor space : YUVChroma subsampling : 4:2:0Bit depth : 8 bitsScan type : ProgressiveBits/(Pixel*Frame) : 0.335Stream size : 300 MiB (94%)Writing library : x264 core 120 r2164 da19765Encoding settings : cabac=1 / ref=5 / deblock=1:0:0 / analyse=0x3:0x113 / me=umh / subme=10 / psy=1 / psy_rd=1.00:1.00 / mixed_ref=1 / me_range=24 / chroma_me=1 / trellis=2 / 8x8dct=1 / cqm=0 / deadzone=21,11 / fast_pskip=0 / chroma_qp_offset=-4 / threads=12 / sliced_threads=0 / nr=0 / decimate=1 / interlaced=0 / bluray_compat=0 / constrained_intra=0 / bframes=16 / b_pyramid=2 / b_adapt=1 / b_bias=0 / direct=1 / weightb=1 / open_gop=0 / weightp=2 / keyint=250 / keyint_min=25 / scenecut=40 / intra_refresh=0 / rc_lookahead=40 / rc=crf / mbtree=1 / crf=16.0 / qcomp=0.60 / qpmin=0 / qpmax=69 / qpstep=4 / ip_ratio=1.40 / aq=1:1.00Language : English

AudioID : 2Format : AC-3Format/Info : Audio Coding 3Mode extension : CM (complete main)Codec ID : A_AC3Duration : 4mn 32sBit rate mode : ConstantBit rate : 384 KbpsChannel(s) : 6 channelsChannel positions : Front: L C R, Side: L R, LFESampling rate : 48.0 KHzBit depth : 16 bitsCompression mode : LossyDelay relative to video : 32msStream size : 12.5 MiB (4%)Language : English


Трекер:  [ 20-Мар-2013 16:58 ]

  

Скачать .torrent

Размер .torrent файла 13 KB


Размер: 319 MB
Хэш (hash) релиза: bccdf04a578a2356d45791a2574a6fb3107ce7ed

Еще никто не оставлял запись к записи скачать торрент Taylor Swift - Mean . Будь первым!

!Обратная связь