Скачать через торрент музыку Amy Macdonald - Zermatt Unplugged бесплатно без регистрации torrent

Если у вас наблюдаются проблемы со скриншотами, переходом по ссылками, скачиванием торрентов - проблемы в блокировщике рекламы AdBlock. #хорошегоДня!


Статистика раздачи
Размер:  5.98 GB   |    Зарегистрирован:  4 года 6 месяцев   |    .torrent скачан:  63 раза   |   
Раздают:  1  
   
Загрузка...
 
Автор Сообщение

Galfimbul

avatar Galfimbul


Amy Macdonald
Zermatt Unplugged

Жанр: Folk Rock
Продолжительность: 1:18:29
Год выпуска: 2012

Описание: Zeltbühne
Zermatt, Switzerland
2012-April-18

Tracklist:
01 Ordinary Life
02 Poison Prince
03 L.A.
04 Youth Of Today
05 Love Love
06 Mr Rock n Roll
07 Foothballers Wife
08 Spark
09 This Pretty Face
10 Dont Tell Me That Its Over
11 Troubled Soul
12 Give It All Up
13 No Roots
14 Band Introduction
15 Run
16 This Is The Life
17 Born To Run
18 Lets Start A Band
Качество: HDTV 720p
Контейнер: MKV
Видео кодек: H.264
Аудио кодек: AC3
Видео: AVC, 1280:720, 9995 kbps, 50 fps
Аудио: AC3, 448 kbps, 48 kHz, 6 ch
Аудио 2: MP2, 256 kbps, 48 kHz, 2 ch
Уникальный идентификатор : 178804278544491407881443237379681422882 (0x868473907ADE961FA9A325FEB19A0E22)Полное имя : H:\CAPTURE\Amy Macdonald - Zermatt Unplugged 2012 [HDTV 720p].mkvФормат : MatroskaВерсия формата : Version 4 / Version 2Размер файла : 5,98 ГбайтПродолжительность : 1 ч. 18 м.Режим общего битрейта : ПеременныйОбщий поток : 10,9 Мбит/секДата кодирования : UTC 2010-02-22 21:41:31Программа кодирования : mkvmerge v5.9.0 ('On The Loose') built on Dec 9 2012 15:37:01Библиотека кодирования : libebml v1.3.0 + libmatroska v1.4.0

ВидеоИдентификатор : 1Формат : AVCФормат/Информация : Advanced Video CodecПрофиль формата : High@L4.0Параметр CABAC формата : ДаПараметр ReFrames формата : 3 кадраПараметр GOP формата : M=2, N=24Режим смешивания : Header strippingИдентификатор кодека : V_MPEG4/ISO/AVCПродолжительность : 1 ч. 18 м.Вид битрейта : ПеременныйБитрейт : 9995 Кбит/секМаксимальный битрейт : 40,0 Мбит/секШирина : 1280 пикселейВысота : 720 пикселейСоотношение сторон : 16:9Режим частоты кадров : ПостоянныйЧастота кадров : 50,000 кадров/секСтандарт вещания : ComponentЦветовое пространство : YUVСубдискретизация насыщенности : 4:2:0Битовая глубина : 8 битТип развёртки : ПрогрессивнаяБит/(Пиксели*Кадры) : 0.217Размер потока : 5,48 Гбайт (92%)Язык : EnglishDefault : ДаForced : НетОсновные цвета : BT.709Характеристики трансфера : BT.709Коэффициенты матрицы : BT.709

Аудио #1Идентификатор : 2Формат : AC-3Формат/Информация : Audio Coding 3Расширение режима : CM (complete main)Параметр Endianness формата : BigРежим смешивания : Header strippingИдентификатор кодека : A_AC3Продолжительность : 1 ч. 18 м.Вид битрейта : ПостоянныйБитрейт : 448 Кбит/секКаналы : 6 каналовРасположение каналов : Front: L C R, Side: L R, LFEЧастота : 48,0 КГцБитовая глубина : 16 битМетод сжатия : С потерямиРазмер потока : 252 Мбайт (4%)Заголовок : AC3 6chЯзык : EnglishDefault : ДаForced : Нет

Аудио #2Идентификатор : 3Формат : MPEG AudioВерсия формата : Version 1Профиль формата : Layer 2Режим смешивания : Header strippingИдентификатор кодека : A_MPEG/L2Идентификатор кодека/Подсказка : MP2Продолжительность : 1 ч. 18 м.Вид битрейта : ПостоянныйБитрейт : 256 Кбит/секКаналы : 2 каналаЧастота : 48,0 КГцМетод сжатия : С потерямиРазмер потока : 144 Мбайт (2%)Заголовок : MP2 2chЯзык : EnglishDefault : НетForced : Нет


Трекер:  [ 20-Мар-2013 16:58 ]

  

Скачать .torrent

Размер .torrent файла 30 KB


Размер: 5.98 GB
Хэш (hash) релиза: d64943e23497d10088e103cb0da41f1e305a39d3

Еще никто не оставлял запись к записи скачать торрент Amy Macdonald - Zermatt Unplugged . Будь первым!

!Обратная связь