Скачать через торрент музыку Taylor Swift - White Horse бесплатно без регистрации torrent

Если у вас наблюдаются проблемы со скриншотами, переходом по ссылками, скачиванием торрентов - проблемы в блокировщике рекламы AdBlock. #хорошегоДня!


Статистика раздачи
Размер:  414 MB   |    Зарегистрирован:  4 года 6 месяцев   |    .torrent скачан:  54 раза   |   
Раздают:  1  
   
Загрузка...
 
Автор Сообщение

Galfimbul

avatar Galfimbul


Taylor Swift - White Horse (Palladia)

Жанр: Country pop
Продолжительность: 04:03
Год выпуска: 2008

Качество: HDTV 1080i
Контейнер: TS

Видео: AVC 1920x1080 16:9 13.2 Mbps 29.970 fps
Аудио: AC3 384 kbps 2 channels 48 KHz
GeneralID : 1 (0x1)Complete name : D:\Taylor Swift - White Horse.tsFormat : MPEG-TSFile size : 414 MiBDuration : 4mn 3sOverall bit rate : 14.3 Mbps

VideoID : 4113 (0x1011)Menu ID : 1 (0x1)Format : AVCFormat/Info : Advanced Video CodecFormat profile : Main@L4.0Format settings, CABAC : YesFormat settings, ReFrames : 4 framesCodec ID : 27Duration : 4mn 3sBit rate mode : VariableBit rate : 13.2 MbpsMaximum bit rate : 19.2 MbpsWidth : 1 920 pixelsHeight : 1 080 pixelsDisplay aspect ratio : 16:9Frame rate : 29.970 fpsColor space : YUVChroma subsampling : 4:2:0Bit depth : 8 bitsScan type : InterlacedScan order : Top Field FirstBits/(Pixel*Frame) : 0.212Stream size : 382 MiB (92%)

AudioID : 4352 (0x1100)Menu ID : 1 (0x1)Format : AC-3Format/Info : Audio Coding 3Mode extension : CM (complete main)Codec ID : 129Duration : 4mn 3sBit rate mode : ConstantBit rate : 384 KbpsChannel(s) : 2 channelsChannel positions : Front: L RSampling rate : 48.0 KHzBit depth : 16 bitsCompression mode : LossyStream size : 11.1 MiB (3%)Language : English


Трекер:  [ 20-Мар-2013 16:59 ]

  

Скачать .torrent

Размер .torrent файла 16 KB


Размер: 414 MB
Хэш (hash) релиза: 7d6b1c6475022dba6dcd5597f216fba962fada53

Еще никто не оставлял запись к записи скачать торрент Taylor Swift - White Horse . Будь первым!

!Обратная связь