Скачать через торрент музыку Taylor Swift - I Knew You Were Trouble бесплатно без регистрации torrent

Если у вас наблюдаются проблемы со скриншотами, переходом по ссылками, скачиванием торрентов - проблемы в блокировщике рекламы AdBlock. #хорошегоДня!


Статистика раздачи
Размер:  425 MB   |    Зарегистрирован:  4 года 6 месяцев   |    .torrent скачан:  45 раз   |   
Раздают:  1  
   
Загрузка...
 
Автор Сообщение

Galfimbul

avatar Galfimbul


Taylor Swift - I Knew You Were Trouble (Palladia)

Жанр: Electropop, popstep, pop rock
Продолжительность: 05:48
Год выпуска: 2012

Качество: HDTV 1080i
Контейнер: MPG

Видео: MPEG2 1920x1080 16:9 9 628 Kbps 29.970 fps
Аудио: AC3 384 kbps 2 channels 48.0 KHz
GeneralComplete name : D:\Taylor Swift - I Knew You Were Trouble.mpgFormat : MPEG-PSFile size : 425 MiBDuration : 5mn 48sOverall bit rate : 10.2 Mbps

VideoID : 224 (0xE0)Format : MPEG VideoFormat version : Version 2Format profile : Main@HighFormat settings, BVOP : YesFormat settings, Matrix : DefaultDuration : 5mn 48sBit rate mode : VariableBit rate : 9 628 KbpsNominal bit rate : 38.8 MbpsWidth : 1 920 pixelsHeight : 1 080 pixelsDisplay aspect ratio : 16:9Frame rate : 29.970 fpsColor space : YUVChroma subsampling : 4:2:0Bit depth : 8 bitsCompression mode : LossyBits/(Pixel*Frame) : 0.155Stream size : 400 MiB (94%)

AudioID : 189 (0xBD)-128 (0x80)Format : AC-3Format/Info : Audio Coding 3Mode extension : CM (complete main)Muxing mode : DVD-VideoDuration : 5mn 48sBit rate mode : ConstantBit rate : 384 KbpsChannel(s) : 2 channelsChannel positions : Front: L RSampling rate : 48.0 KHzBit depth : 16 bitsCompression mode : LossyStream size : 16.0 MiB (4%)

Text #1ID : 224 (0xE0)-608-1Format : EIA-608Muxing mode : A/53 / DTVCC TransportMuxing mode, more info : Muxed in Video #1Stream size : 0.00 Byte (0%)

Text #2ID : 224 (0xE0)-1Format : EIA-708Muxing mode : A/53 / DTVCC TransportMuxing mode, more info : Muxed in Video #1Stream size : 0.00 Byte (0%)


Трекер:  [ 20-Мар-2013 16:58 ]

  

Скачать .torrent

Размер .torrent файла 17 KB


Размер: 425 MB
Хэш (hash) релиза: b0633a1db308312f640e7587c7c10422231844ae

Торренты, похожие на Taylor Swift - I Knew You Were Trouble скачать торрент

Форум Название Автор Размер S L Добавлен
Фольклор, Народная и Этническая музыка (video) ·· Taylor Swift - I Knew You Were Trouble (AMA 2012) [2012, Pop, HDTVRip 720p] Galfimbul 220144658210 MB 0 0 1361798569

16:22

25-Фев-13

Фольклор, Народная и Этническая музыка (video) ·· Taylor Swift - I Knew You Were Trouble (Live at the Brit Awards 2013) [2013, Country, Pop, HDTVRip 720p] Galfimbul 270547745258 MB 0 0 1361798201

16:16

25-Фев-13

Еще никто не оставлял запись к записи скачать торрент Taylor Swift - I Knew You Were Trouble . Будь первым!

!Обратная связь