Скачать через торрент музыку Taylor Swift - Storytellers бесплатно без регистрации torrent

Если у вас наблюдаются проблемы со скриншотами, переходом по ссылками, скачиванием торрентов - проблемы в блокировщике рекламы AdBlock. #хорошегоДня!


Статистика раздачи
Размер:  6.72 GB   |    Зарегистрирован:  4 года 6 месяцев   |    .torrent скачан:  76 раз   |   
Раздают:  1  
   
Загрузка...
 
Автор Сообщение

Galfimbul

avatar Galfimbul


Taylor Swift - Storytellers (Palladia) November 11, 2012

Жанр: Country pop
Продолжительность: 01:05:27
Год выпуска: 2012

Описание: Over 22 minutes of footage added compared to the VH1 airing.

Треклист:
01 - You Belong With Me
02 - Red
03 - Ours
04 - Eyes Open (Not Aired On VH1)
05 - Mean
06 - Begin Again (Not Aired On VH1)
07 - We Are Never Ever Getting Back Together
08 - Our Song
09 - Love Story

Качество: HDTV 1080i
Контейнер: TS

Видео: MPEG2 1920x1080 16:9 13.6 Mbps 29.970 fps
Аудио: AC3 384 kbps 2 channels 48.0 KHz
GeneralID : 1 (0x1)Complete name : D:\Taylor Swift - Storytellers (Palladia).tsFormat : MPEG-TSFile size : 6.72 GiBDuration : 1h 5mnOverall bit rate : 14.7 Mbps

VideoID : 525 (0x20D)Menu ID : 1 (0x1)Format : MPEG VideoFormat version : Version 2Format profile : Main@HighFormat settings, BVOP : YesFormat settings, Matrix : DefaultCodec ID : 2Duration : 1h 5mnBit rate mode : VariableBit rate : 13.6 MbpsNominal bit rate : 18.0 MbpsWidth : 1 920 pixelsHeight : 1 080 pixelsDisplay aspect ratio : 16:9Frame rate : 29.970 fpsColor space : YUVChroma subsampling : 4:2:0Bit depth : 8 bitsScan type : InterlacedScan order : Top Field FirstCompression mode : LossyBits/(Pixel*Frame) : 0.219Stream size : 6.21 GiB (92%)

AudioID : 523 (0x20B)Menu ID : 1 (0x1)Format : AC-3Format/Info : Audio Coding 3Mode extension : CM (complete main)Codec ID : 129Duration : 1h 5mnBit rate mode : ConstantBit rate : 384 KbpsChannel(s) : 2 channelsChannel positions : Front: L RSampling rate : 48.0 KHzBit depth : 16 bitsCompression mode : LossyStream size : 180 MiB (3%)Language : English


Трекер:  [ 20-Мар-2013 16:57 ]

  

Скачать .torrent

Размер .torrent файла 17 KB


Размер: 6.72 GB
Хэш (hash) релиза: 5778fe5a86834ed10e533b1c4bd63ba082f4a42d

Торренты, похожие на Taylor Swift - Storytellers скачать торрент

Форум Название Автор Размер S L Добавлен
Фольклор, Народная и Этническая музыка (video) ·· Taylor Swift - VH1 Storytellers (11.11.2012) [2012, Country, Country Pop, HDTV 1080i] Galfimbul 51894335604.83 GB 0 0 1361798565

16:22

25-Фев-13

Еще никто не оставлял запись к записи скачать торрент Taylor Swift - Storytellers . Будь первым!

!Обратная связь