Скачать через торрент музыку Taylor Swift - Sparks Fly бесплатно без регистрации torrent

Если у вас наблюдаются проблемы со скриншотами, переходом по ссылками, скачиванием торрентов - проблемы в блокировщике рекламы AdBlock. #хорошегоДня!


Статистика раздачи
Размер:  234 MB   |    Зарегистрирован:  4 года 6 месяцев   |    .torrent скачан:  46 раз   |   
Раздают:  1  
   
Загрузка...
 
Автор Сообщение

Galfimbul

avatar Galfimbul


Taylor Swift - Sparks Fly (Live at iHeartRadio Festival)


Жанр: Country, Pop
Продолжительность: 00:05:24
Год выпуска: 2012
Описание: Выступление на iHeartRadio Music Festival в MGM Grand Las Vegas 22 сентября, 2012.
Качество: HDTVRip 720p
Контейнер: MKV
Видео кодек: H.264
Аудио кодек: AC3
Видео: 1272x712 (16:9), 5741 Kbps, 59.940 fps
Аудио: AC3 192 Kbps, 48.0 KHz, 2.0
GeneralUnique ID : 234397509582296156135192806679868619317 (0xB05751797343E89493AA551527203A35)Complete name : D:\Taylor_Swift-Sparks_Fly.iHeartRadio.720p.mkvFormat : MatroskaFormat version : Version 2File size : 234 MiBDuration : 5mn 24sOverall bit rate : 6 054 KbpsEncoded date : UTC 2012-12-16 23:56:50Writing application : mkvmerge v5.8.0 ('No Sleep / Pillow') built on Sep 2 2012 15:37:04Writing library : libebml v1.2.3 + libmatroska v1.3.0

VideoID : 2Format : AVCFormat/Info : Advanced Video CodecFormat profile : High@L4.1Format settings, CABAC : YesFormat settings, ReFrames : 5 framesCodec ID : V_MPEG4/ISO/AVCDuration : 5mn 24sBit rate : 5 741 KbpsWidth : 1 272 pixelsHeight : 712 pixelsDisplay aspect ratio : 16:9Frame rate mode : ConstantFrame rate : 59.880 fpsOriginal frame rate : 59.940 fpsColor space : YUVChroma subsampling : 4:2:0Bit depth : 8 bitsScan type : ProgressiveBits/(Pixel*Frame) : 0.106Stream size : 222 MiB (95%)Writing library : x264 core 129 r2230 1cffe9fEncoding settings : cabac=1 / ref=5 / deblock=1:1:-1 / analyse=0x3:0x133 / me=esa / subme=10 / psy=1 / psy_rd=1.00:0.00 / mixed_ref=0 / me_range=24 / chroma_me=1 / trellis=2 / 8x8dct=1 / cqm=0 / deadzone=21,11 / fast_pskip=0 / chroma_qp_offset=-2 / threads=18 / lookahead_threads=3 / sliced_threads=0 / nr=0 / decimate=1 / interlaced=0 / bluray_compat=0 / constrained_intra=0 / bframes=16 / b_pyramid=2 / b_adapt=2 / b_bias=0 / direct=3 / weightb=1 / open_gop=0 / weightp=2 / keyint=719 / keyint_min=71 / scenecut=40 / intra_refresh=0 / rc_lookahead=50 / rc=crf / mbtree=1 / crf=19.0 / qcomp=0.60 / qpmin=0 / qpmax=69 / qpstep=4 / ip_ratio=1.40 / aq=1:1.00Language : EnglishDefault : YesForced : No

AudioID : 1Format : AC-3Format/Info : Audio Coding 3Mode extension : CM (complete main)Format settings, Endianness : BigCodec ID : A_AC3Duration : 5mn 24sBit rate mode : ConstantBit rate : 192 KbpsChannel(s) : 2 channelsChannel positions : Front: L RSampling rate : 48.0 KHzBit depth : 16 bitsCompression mode : LossyDelay relative to video : 40msStream size : 7.42 MiB (3%)Default : YesForced : No


Трекер:  [ 20-Мар-2013 16:57 ]

  

Скачать .torrent

Размер .torrent файла 19 KB


Размер: 234 MB
Хэш (hash) релиза: bcad052ec80cae043bece8421ba6863dcdde5162

Еще никто не оставлял запись к записи скачать торрент Taylor Swift - Sparks Fly . Будь первым!

!Обратная связь