Taylor Swift - I Knew You Were Trouble torrent

, , - AdBlock. #!


258 MB   |    :  4 6    |    .torrent :  45    |   
1  
   
...
 

Galfimbul

avatar Galfimbul


Taylor Swift - I Knew You Were Trouble (Live at Brit Awards 2013)


: Country, Pop
: 00:05:24
: 2012
: Brit Awards 2013 O2 Arena, , 20 2013.
* Taylor.Swift.BRIT.Awards.2013.H264.422.1080i.44Mbps-aB
: HDTVRip 720p
: MKV
: H.264
: MP2
: 1280x720 (16:9), 7690 Kbps, 25 fps
: MP2 256 Kbps, 48.0 KHz, 2.0
General
Unique ID : 184001947769031009731365551204943862685 (0x8A6D7C7145A9464DB2D751A64B111B9D)
Complete name : D:\taylor.swift.brit.awards.2013.h264.720p.MP2.mkv
Format : Matroska
Format version : Version 4 / Version 2
File size : 258 MiB
Duration : 4mn 26s
Overall bit rate : 8 108 Kbps
Movie name : Taylor Swift - I Knew You Were Trouble (Live at Brit Awards 2013)
Encoded date : UTC 2013-02-21 20:31:03
Writing application : mkvmerge v6.0.0 ('Coming Up For Air') built on Jan 20 2013 09:52:00
Writing library : libebml v1.3.0 + libmatroska v1.4.0

Video
ID : 1
Format : AVC
Format/Info : Advanced Video Codec
Format profile : High@L4.1
Format settings, CABAC : Yes
Format settings, ReFrames : 9 frames
Codec ID : V_MPEG4/ISO/AVC
Duration : 4mn 26s
Bit rate : 7 690 Kbps
Width : 1 280 pixels
Height : 720 pixels
Display aspect ratio : 16:9
Frame rate mode : Constant
Frame rate : 25.000 fps
Color space : YUV
Chroma subsampling : 4:2:0
Bit depth : 8 bits
Scan type : Progressive
Bits/(Pixel*Frame) : 0.334
Stream size : 245 MiB (95%)
Writing library : x264 core 129 r2245 bc13772
Encoding settings : cabac=1 / ref=9 / deblock=1:-3:-3 / analyse=0x3:0x133 / me=tesa / subme=10 / psy=1 / psy_rd=1.00:0.00 / mixed_ref=1 / me_range=16 / chroma_me=1 / trellis=2 / 8x8dct=1 / cqm=0 / deadzone=21,11 / fast_pskip=0 / chroma_qp_offset=-2 / threads=12 / lookahead_threads=2 / sliced_threads=0 / nr=0 / decimate=1 / interlaced=0 / bluray_compat=0 / constrained_intra=0 / bframes=6 / b_pyramid=2 / b_adapt=2 / b_bias=0 / direct=3 / weightb=1 / open_gop=0 / weightp=2 / keyint=250 / keyint_min=25 / scenecut=40 / intra_refresh=0 / rc_lookahead=60 / rc=crf / mbtree=1 / crf=20.0 / qcomp=0.60 / qpmin=0 / qpmax=69 / qpstep=4 / vbv_maxrate=40000 / vbv_bufsize=30000 / crf_max=0.0 / nal_hrd=none / ip_ratio=1.40 / aq=1:1.00
Language : English
Default : Yes
Forced : No

Audio
ID : 2
Format : MPEG Audio
Format version : Version 1
Format profile : Layer 2
Codec ID : A_MPEG/L2
Codec ID/Hint : MP2
Duration : 4mn 26s
Bit rate mode : Constant
Bit rate : 256 Kbps
Channel(s) : 2 channels
Sampling rate : 48.0 KHz
Compression mode : Lossy
Stream size : 8.15 MiB (3%)
Default : Yes
Forced : No
[url=http://http:///forum/viewtopic.php?t=1742593] [/url]

 ·  , , FAQ-
:  [ 20--2013 16:57 ]

  

.torrent

.torrent 10 KB


: 258 MB
(hash) : 03da8b1051bcafe2254958209d457ab180228dee
··
...

, Taylor Swift - I Knew You Were Trouble

S L
, (video) ·· Taylor Swift - I Knew You Were Trouble (AMA 2012) [2012, Pop, HDTVRip 720p] Galfimbul 220144658210 MB 0 0 1361798569

16:22

25--13

, (video) ·· Taylor Swift - I Knew You Were Trouble (Palladia) [2012, Electropop, popstep, pop rock, HDTV 1080i] Galfimbul 445247488425 MB 0 0 1361798402

16:20

25--13

Taylor Swift - I Knew You Were Trouble . !

!