Скачать через торрент музыку Трон: Наследие TRON: Legacy бесплатно без регистрации torrent

Если у вас наблюдаются проблемы со скриншотами, переходом по ссылками, скачиванием торрентов - проблемы в блокировщике рекламы AdBlock. #хорошегоДня!


Статистика раздачи
Размер:  377 MB   |    Зарегистрирован:  6 лет 9 месяцев   |    .torrent скачан:  136 раз   |   
Раздают:  1  
   
Загрузка...
 
Автор Сообщение

AqvaGen




Жанр: Score || Композитор: Daft Punk || Год выпуска диска / фильма: 2010
Страна-производитель диска: USA || Издатель (лейбл): Walt Disney Records || Номер по каталогу: D0013234-02
Аудио кодек: FLAC (*.flac) || Тип рипа: tracks+.cue || Битрейт аудио: lossless || Продолжительность: 71'38''
Наличие сканов в содержимом раздачи: нет

Треклист:
01. Overture (2:28)
02. The Grid (1:37)
03. The Son of Flynn (1:35)
04. Recognizer (2:38)
05. Armory (2:03)
06. Arena (1:33)
07. Rinzler (2:18)
08. The Game Has Changed (3:25)
09. Outlands (2:42)
10. Adagio for TRON (4:11)
11. Nocturne (1:42)
12. End of Line (2:36)
13. Derezzed (1:44)
14. Fall (1:23)
15. Solar Sailer (2:42)
16. Rectifier (2:14)
17. Disc Wars (4:11)
18. C.L.U. (4:39)
19. Arrival (2:00)
20. Flynn Lives (3:22)
21. TRON Legacy (End Titles) (3:18)
22. Finale (4:23)

Special Edition Bonus Disc
01. Encom, Part I (3:53)
02. Encom, Part II (2:18)
03. Round One (1:41)
04. Castor (2:19)
05. Reflections (2:42)

 
Exact Audio Copy V1.0 beta 1 from 15. November 2010

EAC extraction logfile from 2. December 2010, 13:42

Unknown Artist / TRON: Legacy

Used drive : Optiarc DVD RW AD-5200A Adapter: 0 ID: 0

Read mode : SecureUtilize accurate stream : YesDefeat audio cache : YesMake use of C2 pointers : No

Read offset correction : 48Overread into Lead-In and Lead-Out : NoFill up missing offset samples with silence : YesDelete leading and trailing silent blocks : NoNull samples used in CRC calculations : YesUsed interface : Native Win32 interface for Win NT & 2000Gap handling : Appended to previous track

Used output format : Internal WAV RoutinesSample format : 44.100 Hz; 16 Bit; Stereo

TOC of the extracted CD

Track | Start | Length | Start sector | End sector --------------------------------------------------------- 1 | 0:00.00 | 2:28.01 | 0 | 11100 2 | 2:28.01 | 1:36.56 | 11101 | 18356 3 | 4:04.57 | 1:35.17 | 18357 | 25498 4 | 5:39.74 | 2:37.53 | 25499 | 37326 5 | 8:17.52 | 2:02.74 | 37327 | 46550 6 | 10:20.51 | 1:33.17 | 46551 | 53542 7 | 11:53.68 | 2:17.48 | 53543 | 63865 8 | 14:11.41 | 3:25.36 | 63866 | 79276 9 | 17:37.02 | 2:42.36 | 79277 | 91462 10 | 20:19.38 | 4:11.07 | 91463 | 110294 11 | 24:30.45 | 1:41.51 | 110295 | 117920 12 | 26:12.21 | 2:36.36 | 117921 | 129656 13 | 28:48.57 | 1:44.09 | 129657 | 137465 14 | 30:32.66 | 1:22.46 | 137466 | 143661 15 | 31:55.37 | 2:42.09 | 143662 | 155820 16 | 34:37.46 | 2:14.04 | 155821 | 165874 17 | 36:51.50 | 4:11.33 | 165875 | 184732 18 | 41:03.08 | 4:39.24 | 184733 | 205681 19 | 45:42.32 | 2:00.37 | 205682 | 214718 20 | 47:42.69 | 3:22.11 | 214719 | 229879 21 | 51:05.05 | 3:17.62 | 229880 | 244716 22 | 54:22.67 | 4:22.59 | 244717 | 264425 23 | 61:17.51 | 1:41.16 | 275826 | 283416

Track 1

Filename L:\Daft Punk\01 - Overture.wav

Pre-gap length 0:00:02.00

Peak level 97.9 % Extraction speed 2.1 X Track quality 100.0 % Test CRC ED6696FB Copy CRC ED6696FB Track not present in AccurateRip database Copy OK

Track 2

Filename L:\Daft Punk\02 - The Grid.wav

Peak level 94.4 % Extraction speed 2.1 X Track quality 100.0 % Test CRC 7BDADED7 Copy CRC 7BDADED7 Track not present in AccurateRip database Copy OK

Track 3

Filename L:\Daft Punk\03 - The Son of Flynn.wav

Peak level 74.4 % Extraction speed 2.1 X Track quality 100.0 % Test CRC 81679A57 Copy CRC 81679A57 Track not present in AccurateRip database Copy OK

Track 4

Filename L:\Daft Punk\04 - Recognizer.wav

Peak level 99.5 % Extraction speed 2.1 X Track quality 99.9 % Test CRC 3F95C7A4 Copy CRC 3F95C7A4 Track not present in AccurateRip database Copy OK

Track 5

Filename L:\Daft Punk\05 - Armory.wav

Peak level 73.2 % Extraction speed 2.5 X Track quality 100.0 % Test CRC F7CA87F6 Copy CRC F7CA87F6 Track not present in AccurateRip database Copy OK

Track 6

Filename L:\Daft Punk\06 - Arena.wav

Peak level 94.4 % Extraction speed 2.4 X Track quality 100.0 % Test CRC 85267C47 Copy CRC 85267C47 Track not present in AccurateRip database Copy OK

Track 7

Filename L:\Daft Punk\07 - Rinzler.wav

Peak level 87.0 % Extraction speed 2.8 X Track quality 100.0 % Test CRC C47662F1 Copy CRC C47662F1 Track not present in AccurateRip database Copy OK

Track 8

Filename L:\Daft Punk\08 - The Game Has Changed.wav

Peak level 94.4 % Extraction speed 3.1 X Track quality 100.0 % Test CRC BC920AB0 Copy CRC BC920AB0 Track not present in AccurateRip database Copy OK

Track 9

Filename L:\Daft Punk\09 - Outlands.wav

Peak level 94.6 % Extraction speed 3.1 X Track quality 100.0 % Test CRC B86A0FD7 Copy CRC B86A0FD7 Track not present in AccurateRip database Copy OK

Track 10

Filename L:\Daft Punk\10 - Adagio For TRON.wav

Peak level 99.2 % Extraction speed 3.6 X Track quality 100.0 % Test CRC D1E634E9 Copy CRC D1E634E9 Track not present in AccurateRip database Copy OK

Track 11

Filename L:\Daft Punk\11 - Nocturne.wav

Peak level 67.3 % Extraction speed 3.1 X Track quality 100.0 % Test CRC 7E5F95DA Copy CRC 7E5F95DA Track not present in AccurateRip database Copy OK

Track 12

Filename L:\Daft Punk\12 - End of Line.wav

Peak level 94.4 % Extraction speed 3.5 X Track quality 100.0 % Test CRC 5FF1C3A7 Copy CRC 5FF1C3A7 Track not present in AccurateRip database Copy OK

Track 13

Filename L:\Daft Punk\13 - Derezzed.wav

Peak level 94.4 % Extraction speed 3.2 X Track quality 100.0 % Test CRC 14DC2F3C Copy CRC 14DC2F3C Track not present in AccurateRip database Copy OK

Track 14

Filename L:\Daft Punk\14 - Fall.wav

Peak level 94.4 % Extraction speed 3.0 X Track quality 100.0 % Test CRC 57201FAC Copy CRC 57201FAC Track not present in AccurateRip database Copy OK

Track 15

Filename L:\Daft Punk\15 - Solar Sailer.wav

Peak level 94.8 % Extraction speed 3.7 X Track quality 100.0 % Test CRC 049FBA3C Copy CRC 049FBA3C Track not present in AccurateRip database Copy OK

Track 16

Filename L:\Daft Punk\16 - Rectifier.wav

Peak level 94.4 % Extraction speed 3.6 X Track quality 100.0 % Test CRC 5DCF8CEE Copy CRC 5DCF8CEE Track not present in AccurateRip database Copy OK

Track 17

Filename L:\Daft Punk\17 - Disc Wars.wav

Peak level 99.6 % Extraction speed 4.2 X Track quality 100.0 % Test CRC FFB2C31B Copy CRC FFB2C31B Track not present in AccurateRip database Copy OK

Track 18

Filename L:\Daft Punk\18 - C.L.U..wav

Peak level 94.3 % Extraction speed 4.4 X Track quality 100.0 % Test CRC 394332E0 Copy CRC 394332E0 Track not present in AccurateRip database Copy OK

Track 19

Filename L:\Daft Punk\19 - Arrival.wav

Peak level 94.4 % Extraction speed 3.8 X Track quality 100.0 % Test CRC 958DDC93 Copy CRC 958DDC93 Track not present in AccurateRip database Copy OK

Track 20

Filename L:\Daft Punk\20 - Flynn Lives.wav

Peak level 98.7 % Extraction speed 3.9 X Track quality 100.0 % Test CRC 015E35FE Copy CRC 015E35FE Track not present in AccurateRip database Copy OK

Track 21

Filename L:\Daft Punk\21 - TRON Legacy (End Titles).wav

Peak level 94.0 % Extraction speed 4.4 X Track quality 100.0 % Test CRC DAC10804 Copy CRC DAC10804 Track not present in AccurateRip database Copy OK

Track 22

Filename L:\Daft Punk\22 - Finale.wav

Peak level 98.9 % Extraction speed 4.8 X Track quality 100.0 % Test CRC 37DA1B9A Copy CRC 37DA1B9A Track not present in AccurateRip database Copy OK

None of the tracks are present in the AccurateRip database

No errors occurred

End of status report
 
Exact Audio Copy V1.0 beta 1 from 15. November 2010

EAC extraction logfile from 2. December 2010, 20:14

Daft Punk / Tron: Legacy (Cd2)

Used drive : Optiarc DVD RW AD-5200A Adapter: 0 ID: 0

Read mode : SecureUtilize accurate stream : YesDefeat audio cache : YesMake use of C2 pointers : No

Read offset correction : 48Overread into Lead-In and Lead-Out : NoFill up missing offset samples with silence : YesDelete leading and trailing silent blocks : NoNull samples used in CRC calculations : YesUsed interface : Native Win32 interface for Win NT & 2000Gap handling : Appended to previous track

Used output format : Internal WAV RoutinesSample format : 44.100 Hz; 16 Bit; Stereo

TOC of the extracted CD

Track | Start | Length | Start sector | End sector --------------------------------------------------------- 1 | 0:00.00 | 3:52.43 | 0 | 17442 2 | 3:52.43 | 2:17.49 | 17443 | 27766 3 | 6:10.17 | 1:40.69 | 27767 | 35335 4 | 7:51.11 | 2:19.30 | 35336 | 45790 5 | 10:10.41 | 2:42.14 | 45791 | 57954 6 | 15:24.55 | 5:55.36 | 69355 | 96015

Track 1

Filename L:\Daft Punk\cd2\01 - Encom Part I.wav

Pre-gap length 0:00:02.00

Peak level 94.4 % Extraction speed 2.4 X Track quality 100.0 % Test CRC 228E6FB9 Copy CRC 228E6FB9 Track not present in AccurateRip database Copy OK

Track 2

Filename L:\Daft Punk\cd2\02 - Encom Part II.wav

Peak level 94.4 % Extraction speed 2.4 X Track quality 100.0 % Test CRC A88E2EAD Copy CRC A88E2EAD Track not present in AccurateRip database Copy OK

Track 3

Filename L:\Daft Punk\cd2\03 - Round One.wav

Peak level 94.4 % Extraction speed 1.7 X Track quality 99.8 % Test CRC A6D3C384 Copy CRC A6D3C384 Track not present in AccurateRip database Copy OK

Track 4

Filename L:\Daft Punk\cd2\04 - Castor.wav

Peak level 91.7 % Extraction speed 2.6 X Track quality 100.0 % Test CRC A019B2B3 Copy CRC A019B2B3 Track not present in AccurateRip database Copy OK

Track 5

Filename L:\Daft Punk\cd2\05 - Reflections.wav

Peak level 94.4 % Extraction speed 2.8 X Track quality 100.0 % Test CRC 8233462C Copy CRC 8233462C Track not present in AccurateRip database Copy OK

None of the tracks are present in the AccurateRip database

No errors occurred

End of status report
 
REM DATE 2010REM DISCID 430EC217REM COMMENT "ExactAudioCopy v1.0b1"PERFORMER "Daft Punk"TITLE "TRON: Legacy"FILE "01 - Overture.flac" WAVE TRACK 01 AUDIO TITLE "Overture" PERFORMER "Daft Punk" INDEX 01 00:00:00FILE "02 - The Grid.flac" WAVE TRACK 02 AUDIO TITLE "The Grid" PERFORMER "Daft Punk" INDEX 01 00:00:00FILE "03 - The Son of Flynn.flac" WAVE TRACK 03 AUDIO TITLE "The Son of Flynn" PERFORMER "Daft Punk" INDEX 01 00:00:00FILE "04 - Recognizer.flac" WAVE TRACK 04 AUDIO TITLE "Recognizer" PERFORMER "Daft Punk" INDEX 01 00:00:00FILE "05 - Armory.flac" WAVE TRACK 05 AUDIO TITLE "Armory" PERFORMER "Daft Punk" INDEX 01 00:00:00FILE "06 - Arena.flac" WAVE TRACK 06 AUDIO TITLE "Arena" PERFORMER "Daft Punk" INDEX 01 00:00:00FILE "07 - Rinzler.flac" WAVE TRACK 07 AUDIO TITLE "Rinzler" PERFORMER "Daft Punk" INDEX 01 00:00:00FILE "08 - The Game Has Changed.flac" WAVE TRACK 08 AUDIO TITLE "The Game Has Changed" PERFORMER "Daft Punk" INDEX 01 00:00:00FILE "09 - Outlands.flac" WAVE TRACK 09 AUDIO TITLE "Outlands" PERFORMER "Daft Punk" INDEX 01 00:00:00FILE "10 - Adagio For TRON.flac" WAVE TRACK 10 AUDIO TITLE "Adagio For TRON" PERFORMER "Daft Punk" INDEX 01 00:00:00FILE "11 - Nocturne.flac" WAVE TRACK 11 AUDIO TITLE "Nocturne" PERFORMER "Daft Punk" INDEX 01 00:00:00FILE "12 - End of Line.flac" WAVE TRACK 12 AUDIO TITLE "End of Line" PERFORMER "Daft Punk" INDEX 01 00:00:00FILE "13 - Derezzed.flac" WAVE TRACK 13 AUDIO TITLE "Derezzed" PERFORMER "Daft Punk" INDEX 01 00:00:00FILE "14 - Fall.flac" WAVE TRACK 14 AUDIO TITLE "Fall" PERFORMER "Daft Punk" INDEX 01 00:00:00FILE "15 - Solar Sailer.flac" WAVE TRACK 15 AUDIO TITLE "Solar Sailer" PERFORMER "Daft Punk" INDEX 01 00:00:00FILE "16 - Rectifier.flac" WAVE TRACK 16 AUDIO TITLE "Rectifier" PERFORMER "Daft Punk" INDEX 01 00:00:00FILE "17 - Disc Wars.flac" WAVE TRACK 17 AUDIO TITLE "Disc Wars" PERFORMER "Daft Punk" INDEX 01 00:00:00FILE "18 - C.L.U..flac" WAVE TRACK 18 AUDIO TITLE "C.L.U." PERFORMER "Daft Punk" INDEX 01 00:00:00FILE "19 - Arrival.flac" WAVE TRACK 19 AUDIO TITLE "Arrival" PERFORMER "Daft Punk" INDEX 01 00:00:00FILE "20 - Flynn Lives.flac" WAVE TRACK 20 AUDIO TITLE "Flynn Lives" PERFORMER "Daft Punk" INDEX 01 00:00:00FILE "21 - TRON Legacy (End Titles).flac" WAVE TRACK 21 AUDIO TITLE "TRON Legacy (End Titles)" PERFORMER "Daft Punk" INDEX 01 00:00:00FILE "22 - Finale.flac" WAVE TRACK 22 AUDIO TITLE "Finale" PERFORMER "Daft Punk" INDEX 01 00:00:00
 
REM DATE 2010REM DISCID 3F050006REM COMMENT "ExactAudioCopy v1.0b1"PERFORMER "Daft Punk"TITLE "Tron: Legacy (Cd2)"FILE "01 - Encom Part I.flac" WAVE TRACK 01 AUDIO TITLE "Encom Part I" PERFORMER "Daft Punk" FLAGS DCP INDEX 01 00:00:00FILE "02 - Encom Part II.flac" WAVE TRACK 02 AUDIO TITLE "Encom Part II" PERFORMER "Daft Punk" FLAGS DCP INDEX 01 00:00:00FILE "03 - Round One.flac" WAVE TRACK 03 AUDIO TITLE "Round One" PERFORMER "Daft Punk" FLAGS DCP INDEX 01 00:00:00FILE "04 - Castor.flac" WAVE TRACK 04 AUDIO TITLE "Castor" PERFORMER "Daft Punk" FLAGS DCP INDEX 01 00:00:00FILE "05 - Reflections.flac" WAVE TRACK 05 AUDIO TITLE "Reflections" PERFORMER "Daft Punk" FLAGS DCP INDEX 01 00:00:00


Трекер:  [ 19-Дек-2010 16:34 ]

  

Скачать .torrent

Размер .torrent файла 17 KB


Размер: 377 MB
Хэш (hash) релиза: 0c06cb952deb24a16bfd72df2b4ef2ca0620bbca

bot

Топик был перенесен в форум Саундтреки к фильмам и мультфильмам (lossless)

Перенес AqvaGen

Хотите добавить комментарий к записи скачать торрент Трон: Наследие TRON: Legacy

!Обратная связь