Ryoujoku Guerrilla Kari 3 Insult Guerrilla Hunt 3 UnionPeer.org HD

2015, 2014 UnionPeer.org

.

, , - AdBlock. #!


3.78 GB   |    :  4 5    |    .torrent :  143    |   
1  
   
...
 

Galfimbul

avatar Galfimbul


Ryoujoku Guerrilla Kari 3
Insult Guerrilla Hunt 3 / Guerrilla Hunting


: 2008 .
: Big tits, BDSM, Rape, Virgins, Enema, Oral, Titfuck, Sci-Fi
: ep. 1-2 of 2
: 30:00
:

:
:
: Fujimoto Yoshitaka
: Liquid, Suzuki Mirano

: . . , . , . , . wirruss
Story: There is a spaceship called Victoire. It keeps winning and never loses. The ship is controlled by young and beautiful women, and their victory always boosts the morale of the team. But the ship and its secrets are sold to the enemy after the war, and the women are confined in prison. They have nothing to protect themselves... AniDB
: 2x DVD5
: MPEG2 NTSC 4:3 (720x480) 9800 Kbps
: Japanese (Dolby AC3, 2 ch) 192 Kbps 48.0 KHz
caifrat'.
General
Complete name : G:\VIDEO_TS\VTS_01_1.VOB
Format : MPEG-PS
File size : 1 024 MiB
Duration : 14mn 16s
Overall bit rate mode : Variable
Overall bit rate : 10.0 Mbps

Video
ID : 224 (0xE0)
Format : MPEG Video
Format version : Version 2
Format profile : Main@Main
Format settings, BVOP : Yes
Format settings, Matrix : Custom
Format settings, GOP : M=2, N=15
Duration : 14mn 16s
Bit rate mode : Variable
Bit rate : 9 635 Kbps
Maximum bit rate : 9 800 Kbps
Width : 720 pixels
Height : 480 pixels
Display aspect ratio : 4:3
Frame rate : 29.970 fps
Standard : NTSC
Color space : YUV
Chroma subsampling : 4:2:0
Bit depth : 8 bits
Scan type : Interlaced
Scan order : Top Field First
Compression mode : Lossy
Bits/(Pixel*Frame) : 0.930
Stream size : 984 MiB (96%)

Audio
ID : 189 (0xBD)-128 (0x80)
Format : AC-3
Format/Info : Audio Coding 3
Mode extension : CM (complete main)
Muxing mode : DVD-Video
Duration : 14mn 16s
Bit rate mode : Constant
Bit rate : 192 Kbps
Channel(s) : 2 channels
Channel positions : Front: L R
Sampling rate : 48.0 KHz
Bit depth : 16 bits
Compression mode : Lossy
Stream size : 19.6 MiB (2%)

Menu
General
Complete name : G:\VIDEO_TS\VTS_01_1.VOB
Format : MPEG-PS
File size : 1 024 MiB
Duration : 15mn 6s
Overall bit rate mode : Variable
Overall bit rate : 9 479 Kbps

Video
ID : 224 (0xE0)
Format : MPEG Video
Format version : Version 2
Format profile : Main@Main
Format settings, BVOP : Yes
Format settings, Matrix : Custom
Format settings, GOP : M=2, N=15
Duration : 15mn 6s
Bit rate mode : Variable
Bit rate : 9 098 Kbps
Maximum bit rate : 9 800 Kbps
Width : 720 pixels
Height : 480 pixels
Display aspect ratio : 4:3
Frame rate : 29.970 fps
Standard : NTSC
Color space : YUV
Chroma subsampling : 4:2:0
Bit depth : 8 bits
Scan type : Interlaced
Scan order : Top Field First
Compression mode : Lossy
Bits/(Pixel*Frame) : 0.878
Stream size : 983 MiB (96%)

Audio
ID : 189 (0xBD)-128 (0x80)
Format : AC-3
Format/Info : Audio Coding 3
Mode extension : CM (complete main)
Muxing mode : DVD-Video
Duration : 15mn 6s
Bit rate mode : Constant
Bit rate : 192 Kbps
Channel(s) : 2 channels
Channel positions : Front: L R
Sampling rate : 48.0 KHz
Bit depth : 16 bits
Compression mode : Lossy
Stream size : 20.7 MiB (2%)

Menu


 ·  , , FAQ-
:  [ 25--2013 19:59 ]

  

.torrent

.torrent 19 KB


: 3.78 GB
(hash) : 5a3aad5797e26ae5e2ebfbbb776244c33445d891
··
...

bot

|

Galfimbul

Ryoujoku Guerrilla Kari 3 Insult Guerrilla Hunt 3

!