Скачать порно через торрент Kafun Shoujo Chuuihou! The Animation The Pollinic Girls Attack! ~The Animation~ UnionPeer.org бесплатно онлайн HD качество

Скачать новое порно 2015, 2014 новинки через торрент UnionPeer.org

Порно торрент бесплатно ЮнионПир.орг

Если у вас наблюдаются проблемы со скриншотами, переходом по ссылками, скачиванием торрентов - проблемы в блокировщике рекламы AdBlock. #хорошегоДня!


Статистика раздачи
Размер:  11.34 GB   |    Зарегистрирован:  4 года 8 месяцев   |    .torrent скачан:  183 раза   |   
Раздают:  1  
   
Загрузка...
 
Автор Сообщение

Galfimbul

avatar Galfimbul


花粉少女注意報! ~THE ANIMATION~
Kafun Shoujo Chuuihou! The Animation
The Pollinic Girls Attack! ~The Animation~
Атака девушек!


Год выпуска: 2008
Страна: Япония
Жанр: all sex, gangbang, oral, orgy, school, yuri
Продолжительность: >4 эп. по 30 мин.
Субтитры: Отсутствуют
Цензура: Присутствует
Режиссёр: Raika Ken | Ura Hideo
Студия: Pink Pineapple | Space-X | T-Rex
Описание:
In this alter reality sex is not a reserved theme not even a discrete thing. Due to the existence of female and male pollinic humanoids, they travel just like pollen via the air and just when they find a receptive human they start their process of fertilization or at least thats what they intend to do. It's just normal to see them everywhere and everytime, there are only few ways to avoid them, so almost anybody is caught up.
Информационные ссылки: AniDB || MAL || World Art || ХентайМаг
Исходник: DVD-5
Видео: MPEG2 | NTSC | 16x9 | 720x480 | 9800 Kbps
Аудио JAP: AC-3 | 48000Hz | 192 Kbps | 2ch
01. Let`s Be Erotic Everyone, Let`s Do It
02. I Can`t Stop the Sticky Sliminess
03. How Many Girls Have You Fucked?
04. Heart Pounding Pollinic Girl Land
General
Complete name : H:\VIDEO_TS\VTS_01_1.VOB
Format : MPEG-PS
File size : 1 024 MiB
Duration : 15mn 46s
Overall bit rate mode : Variable
Overall bit rate : 9 074 Kbps

Video
ID : 224 (0xE0)
Format : MPEG Video
Format version : Version 2
Format profile : Main@Main
Format settings, BVOP : Yes
Format settings, Matrix : Custom
Format settings, GOP : M=2, N=15
Duration : 15mn 46s
Bit rate mode : Variable
Bit rate : 8 702 Kbps
Maximum bit rate : 9 800 Kbps
Width : 720 pixels
Height : 480 pixels
Display aspect ratio : 16:9
Frame rate : 29.970 fps
Standard : NTSC
Color space : YUV
Chroma subsampling : 4:2:0
Bit depth : 8 bits
Scan type : Interlaced
Scan order : Top Field First
Compression mode : Lossy
Bits/(Pixel*Frame) : 0.840
Stream size : 982 MiB (96%)

Audio
ID : 189 (0xBD)-128 (0x80)
Format : AC-3
Format/Info : Audio Coding 3
Mode extension : CM (complete main)
Muxing mode : DVD-Video
Duration : 15mn 46s
Bit rate mode : Constant
Bit rate : 192 Kbps
Channel(s) : 2 channels
Channel positions : Front: L R
Sampling rate : 48.0 KHz
Bit depth : 16 bits
Compression mode : Lossy
Stream size : 21.7 MiB (2%)
http://unionpeer.org/forum/viewtopic.php?t=1284100

Наличие всех эпизодов.


Исходник: DVD-5
Видео: MPEG2 | NTSC | 16x9 | 720x480 | 9800 Kbps
Аудио JAP: AC-3 | 48000Hz | 192 Kbps | 2ch
General
Complete name : H:\VIDEO_TS\VTS_01_1.VOB
Format : MPEG-PS
File size : 1 024 MiB
Duration : 15mn 42s
Overall bit rate mode : Variable
Overall bit rate : 9 110 Kbps

Video
ID : 224 (0xE0)
Format : MPEG Video
Format version : Version 2
Format profile : Main@Main
Format settings, BVOP : Yes
Format settings, Matrix : Custom
Format settings, GOP : M=2, N=15
Duration : 15mn 42s
Bit rate mode : Variable
Bit rate : 8 737 Kbps
Maximum bit rate : 9 800 Kbps
Width : 720 pixels
Height : 480 pixels
Display aspect ratio : 16:9
Frame rate : 29.970 fps
Standard : NTSC
Color space : YUV
Chroma subsampling : 4:2:0
Bit depth : 8 bits
Scan type : Interlaced
Scan order : Top Field First
Compression mode : Lossy
Bits/(Pixel*Frame) : 0.844
Stream size : 982 MiB (96%)

Audio
ID : 189 (0xBD)-128 (0x80)
Format : AC-3
Format/Info : Audio Coding 3
Mode extension : CM (complete main)
Muxing mode : DVD-Video
Duration : 15mn 42s
Bit rate mode : Constant
Bit rate : 192 Kbps
Channel(s) : 2 channels
Channel positions : Front: L R
Sampling rate : 48.0 KHz
Bit depth : 16 bits
Compression mode : Lossy
Stream size : 21.6 MiB (2%)


Исходник: DVD-5
Видео: MPEG2 | NTSC | 16x9 | 720x480 | 9400 Kbps
Аудио JAP: AC-3 | 48000Hz | 192 Kbps | 2ch
General
Complete name : H:\VIDEO_TS\VTS_01_1.VOB
Format : MPEG-PS
File size : 1 023 MiB
Duration : 16mn 48s
Overall bit rate mode : Variable
Overall bit rate : 8 510 Kbps
Writing library : encoded by TMPGEnc Video Mastering Works 5 Version. 5.2.3.66

Video
ID : 224 (0xE0)
Format : MPEG Video
Format version : Version 2
Format profile : Main@Main
Format settings, BVOP : Yes
Format settings, Matrix : Custom
Duration : 16mn 48s
Bit rate mode : Variable
Bit rate : 8 149 Kbps
Maximum bit rate : 9 400 Kbps
Width : 720 pixels
Height : 480 pixels
Display aspect ratio : 16:9
Frame rate : 29.970 fps
Standard : NTSC
Color space : YUV
Chroma subsampling : 4:2:0
Bit depth : 8 bits
Scan type : Interlaced
Scan order : Top Field First
Compression mode : Lossy
Bits/(Pixel*Frame) : 0.787
Stream size : 980 MiB (96%)
Writing library : TMPGEnc Video Mastering Works 5 Version. 5.2.3.66
Color primaries : SMPTE 170M
Transfer characteristics : SMPTE 170M
Matrix coefficients : SMPTE 170M

Audio
ID : 189 (0xBD)-128 (0x80)
Format : AC-3
Format/Info : Audio Coding 3
Mode extension : CM (complete main)
Muxing mode : DVD-Video
Duration : 16mn 48s
Bit rate mode : Constant
Bit rate : 192 Kbps
Channel(s) : 2 channels
Channel positions : Front: L R
Sampling rate : 48.0 KHz
Bit depth : 16 bits
Compression mode : Lossy
Stream size : 23.1 MiB (2%)


Исходник: DVD-5
Видео: MPEG2 | NTSC | 16x9 | 720x480 | 9400 Kbps
Аудио JAP: AC-3 | 48000Hz | 192 Kbps | 2ch
General
Complete name : H:\VIDEO_TS\VTS_01_1.VOB
Format : MPEG-PS
File size : 1 024 MiB
Duration : 17mn 14s
Overall bit rate mode : Variable
Overall bit rate : 8 300 Kbps
Writing library : encoded by TMPGEnc Video Mastering Works 5 Version. 5.2.4.68

Video
ID : 224 (0xE0)
Format : MPEG Video
Format version : Version 2
Format profile : Main@Main
Format settings, BVOP : Yes
Format settings, Matrix : Custom
Format settings, GOP : M=3, N=16
Duration : 17mn 14s
Bit rate mode : Variable
Bit rate : 7 943 Kbps
Maximum bit rate : 9 400 Kbps
Width : 720 pixels
Height : 480 pixels
Display aspect ratio : 16:9
Frame rate : 29.970 fps
Standard : NTSC
Color space : YUV
Chroma subsampling : 4:2:0
Bit depth : 8 bits
Scan type : Interlaced
Scan order : Top Field First
Compression mode : Lossy
Bits/(Pixel*Frame) : 0.767
Stream size : 980 MiB (96%)
Writing library : TMPGEnc Video Mastering Works 5 Version. 5.2.4.68
Color primaries : SMPTE 170M
Transfer characteristics : SMPTE 170M
Matrix coefficients : SMPTE 170M

Audio
ID : 189 (0xBD)-128 (0x80)
Format : AC-3
Format/Info : Audio Coding 3
Mode extension : CM (complete main)
Muxing mode : DVD-Video
Duration : 17mn 14s
Bit rate mode : Constant
Bit rate : 192 Kbps
Channel(s) : 2 channels
Channel positions : Front: L R
Sampling rate : 48.0 KHz
Bit depth : 16 bits
Compression mode : Lossy
Stream size : 23.7 MiB (2%)


Трекер:  [ 25-Фев-2013 20:00 ]

  

Скачать .torrent

Размер .torrent файла 57 KB


Размер: 11.34 GB
Хэш (hash) релиза: 454a1cd1d1302d0831abd0bc88e380b484a0ddb0

Торренты, похожие на Kafun Shoujo Chuuihou! The Animation The Pollinic Girls Attack! ~The Animation~ скачать торрент

Форум Название Автор Размер S L Добавлен
Хентай, порно и эротические мультфильмы ·· Kafun Shoujo Chuuihou! The Animation / The Pollinic Girls Attack! The Animation / Атака девушек (Ura Heru, Pink Pineapple) (ep. 1-4 of 4) [cen] [2008-2012 г., All Sex, Gangbang, Yuri, School, Orgy, DVDRip] [rus/jap/eng] [720p] Galfimbul 20265956391.89 GB 0 0 1351930500

11:15

3-Ноя-12

bot

Топик был перенесен в форум Хентай | С цензурой

Перенес Galfimbul

Хотите добавить комментарий к записи скачать торрент Kafun Shoujo Chuuihou! The Animation The Pollinic Girls Attack! ~The Animation~

!Обратная связь