Скачать порно через торрент Shoujo Senki Brain Jacker Приключения воительницы с демонами UnionPeer.org бесплатно онлайн HD качество

Скачать новое порно 2015, 2014 новинки через торрент UnionPeer.org

Порно торрент бесплатно ЮнионПир.орг

Если у вас наблюдаются проблемы со скриншотами, переходом по ссылками, скачиванием торрентов - проблемы в блокировщике рекламы AdBlock. #хорошегоДня!


Статистика раздачи
Размер:  4.27 GB   |    Зарегистрирован:  4 года 5 месяцев   |    .torrent скачан:  301 раз   |   
Раздают:  1  
   
Загрузка...
 
Автор Сообщение

Galfimbul

avatar Galfimbul



少女戦機 ブレインジャッカー | Shoujo Senki Brain Jacker | Приключения воительницы с демонами


Год выпуска: 2011
Страна: Япония
Жанр: ahegao, anal, bdsm, monsters, oral, rape, tentacles, titfuck
Продолжительность: >2 эп. по 30 мин.
Субтитры: Отсутствуют
Цензура: Присутствует
Студия: Schoolzone
Описание:
Based on the eroge "Shoujo Senki Soul Eater" by Lune.
Информационные ссылки: AniDB || MAL || World Art || ХентайМаг
Исходник: DVD-5
Видео: MPEG2 | NTSC | 16x9 | 720x480 | 8183 Kbps
Аудио JAP: AC-3 | 48000Hz | 192 Kbps | 2ch
01. The Downfall of Venus Lin Kaifeng
02. The Captured Beauty Goddess and the Imprisoning Past
General
Complete name : H:\VIDEO_TS\VTS_01_1.VOB
Format : MPEG-PS
File size : 1 024 MiB
Duration : 16mn 45s
Overall bit rate mode : Variable
Overall bit rate : 8 545 Kbps

Video
ID : 224 (0xE0)
Format : MPEG Video
Format version : Version 2
Format profile : Main@Main
Format settings, BVOP : Yes
Format settings, Matrix : Custom
Duration : 16mn 45s
Bit rate mode : Variable
Bit rate : 8 183 Kbps
Maximum bit rate : 9 800 Kbps
Width : 720 pixels
Height : 480 pixels
Display aspect ratio : 16:9
Frame rate : 29.970 fps
Standard : NTSC
Color space : YUV
Chroma subsampling : 4:2:0
Bit depth : 8 bits
Scan type : Interlaced
Scan order : Top Field First
Compression mode : Lossy
Bits/(Pixel*Frame) : 0.790
Stream size : 981 MiB (96%)

Audio
ID : 189 (0xBD)-128 (0x80)
Format : AC-3
Format/Info : Audio Coding 3
Mode extension : CM (complete main)
Muxing mode : DVD-Video
Duration : 16mn 45s
Bit rate mode : Constant
Bit rate : 192 Kbps
Channel(s) : 2 channels
Channel positions : Front: L R
Sampling rate : 48.0 KHz
Bit depth : 16 bits
Compression mode : Lossy
Stream size : 23.0 MiB (2%)


Исходник: DVD-5
Видео: MPEG2 | NTSC | 16x9 | 720x480 | 8072 Kbps
Аудио JAP: AC-3 | 48000Hz | 384 Kbps | 2ch
General
Complete name : H:\VIDEO_TS\VTS_01_1.VOB
Format : MPEG-PS
File size : 1 024 MiB
Duration : 16mn 35s
Overall bit rate mode : Variable
Overall bit rate : 8 628 Kbps

Video
ID : 224 (0xE0)
Format : MPEG Video
Format version : Version 2
Format profile : Main@Main
Format settings, BVOP : Yes
Format settings, Matrix : Custom
Duration : 16mn 35s
Bit rate mode : Variable
Bit rate : 8 072 Kbps
Maximum bit rate : 9 800 Kbps
Width : 720 pixels
Height : 480 pixels
Display aspect ratio : 16:9
Frame rate : 29.970 fps
Standard : NTSC
Color space : YUV
Chroma subsampling : 4:2:0
Bit depth : 8 bits
Scan type : Interlaced
Scan order : Top Field First
Compression mode : Lossy
Bits/(Pixel*Frame) : 0.779
Stream size : 958 MiB (94%)

Audio
ID : 189 (0xBD)-128 (0x80)
Format : AC-3
Format/Info : Audio Coding 3
Mode extension : CM (complete main)
Muxing mode : DVD-Video
Duration : 16mn 35s
Bit rate mode : Constant
Bit rate : 384 Kbps
Channel(s) : 2 channels
Channel positions : Front: L R
Sampling rate : 48.0 KHz
Bit depth : 16 bits
Compression mode : Lossy
Stream size : 45.5 MiB (4%)


Трекер:  [ 25-Фев-2013 20:00 ]

  

Скачать .torrent

Размер .torrent файла 22 KB


Размер: 4.27 GB
Хэш (hash) релиза: 3a290f6c717d3288ac64a42fcbb002c7f89dd470

Торренты, похожие на Shoujo Senki Brain Jacker Приключения воительницы с демонами скачать торрент

Форум Название Автор Размер S L Добавлен
Хентай, порно и эротические мультфильмы ·· Shoujo Senki Brain Jacker / Troopers Bureinjakka girl - graces fall-Lin Kwai Fong / Приключения Воительницы с Демонами (Yuji Ushijima,Marigold,Lune) (ep.1-2) [cen] [2011-2012,Ahegao,Anal,BDSM,Oral,Titfuck,Monster,Tentacles,Rape,DVDRip] [jap/eng(1)] Galfimbul 564474925538 MB 0 0 1349951940

13:39

11-Окт-12

bot

Топик был перенесен в форум Хентай | С цензурой

Перенес Galfimbul

Хотите добавить комментарий к записи скачать торрент Shoujo Senki Brain Jacker Приключения воительницы с демонами

!Обратная связь