Скачать порно через торрент Netorare: Tanabe Yuuka no Dokuhaku Измена: Монолог Танабэ Юки UnionPeer.org бесплатно онлайн HD качество

Скачать новое порно 2015, 2014 новинки через торрент UnionPeer.org

Порно торрент бесплатно ЮнионПир.орг

Если у вас наблюдаются проблемы со скриншотами, переходом по ссылками, скачиванием торрентов - проблемы в блокировщике рекламы AdBlock. #хорошегоДня!


Статистика раздачи
Размер:  1.89 GB   |    Зарегистрирован:  4 года 8 месяцев   |    .torrent скачан:  221 раз   |   
Раздают:  1  
   
Загрузка...
 
Автор Сообщение

Galfimbul

avatar Galfimbul


ネトラレ 田辺優香の独白 | Netorare: Tanabe Yuuka no Dokuhaku | Измена: Монолог Танабэ Юки


Год выпуска: 2010
Страна: Япония
Жанр: bdsm, bondage, housewives, lactation, large breasts, rape, titsjob, vibrators
Продолжительность: >1 эп. 20 мин.
Субтитры: Отсутствуют
Цензура: Присутствует
Режиссёр: Hayakawa Naomi
Студия: ChiChi No Ya
Описание:
A housewife gets raped by a random guy and continues to have sex with him while her husband is away.

Netorare, used to define a genre of Eroge (Hentai Game), meaning "Cuckold". In short, the main protagonist's loved one(s) are taken or seduced away from him and the heroine might be willing or unwilling. This is to cause an emotion of deep jealousy on the viewer.
Информационные ссылки: AniDB || MAL || World Art || ХентайМаг
Исходник: DVD-5
Видео: MPEG2 | NTSC | 16x9 | 720x480 | 7700 Kbps
Аудио JAP: AC-3 | 48000Hz | 192 Kbps | 2ch
01. OVA
General
Complete name : H:\VIDEO_TS\VTS_01_1.VOB
Format : MPEG-PS
File size : 820 MiB
Duration : 17mn 38s
Overall bit rate mode : Variable
Overall bit rate : 6 495 Kbps

Video
ID : 224 (0xE0)
Format : MPEG Video
Format version : Version 2
Format profile : Main@Main
Format settings, BVOP : Yes
Format settings, Matrix : Custom
Format settings, GOP : M=3, N=15
Duration : 17mn 38s
Bit rate mode : Variable
Bit rate : 6 174 Kbps
Maximum bit rate : 7 700 Kbps
Width : 720 pixels
Height : 480 pixels
Display aspect ratio : 16:9
Frame rate : 29.970 fps
Standard : NTSC
Color space : YUV
Chroma subsampling : 4:2:0
Bit depth : 8 bits
Scan type : Interlaced
Scan order : Bottom Field First
Compression mode : Lossy
Bits/(Pixel*Frame) : 0.596
Stream size : 779 MiB (95%)
Color primaries : SMPTE 170M
Transfer characteristics : SMPTE 170M
Matrix coefficients : SMPTE 170M

Audio
ID : 189 (0xBD)-128 (0x80)
Format : AC-3
Format/Info : Audio Coding 3
Mode extension : CM (complete main)
Muxing mode : DVD-Video
Duration : 17mn 38s
Bit rate mode : Constant
Bit rate : 192 Kbps
Channel(s) : 2 channels
Channel positions : Front: L R
Sampling rate : 48.0 KHz
Bit depth : 16 bits
Compression mode : Lossy
Stream size : 24.2 MiB (3%)


Трекер:  [ 25-Фев-2013 20:01 ]

  

Скачать .torrent

Размер .torrent файла 19 KB


Размер: 1.89 GB
Хэш (hash) релиза: dce2468437f0dbf8e7bd22a8e43a76c479a2b42f

bot

Топик был перенесен в форум Хентай | С цензурой

Перенес Galfimbul

Хотите добавить комментарий к записи скачать торрент Netorare: Tanabe Yuuka no Dokuhaku Измена: Монолог Танабэ Юки

!Обратная связь