Скачать порно через торрент Koiito Kinenbi The Animation Праздник любви UnionPeer.org бесплатно онлайн HD качество

Скачать новое порно 2015, 2014 новинки через торрент UnionPeer.org

Порно торрент бесплатно ЮнионПир.орг

Если у вас наблюдаются проблемы со скриншотами, переходом по ссылками, скачиванием торрентов - проблемы в блокировщике рекламы AdBlock. #хорошегоДня!


Статистика раздачи
Размер:  3.01 GB   |    Зарегистрирован:  4 года 5 месяцев   |    .torrent скачан:  114 раз   |   
Раздают:  1  
   
Загрузка...
 
Автор Сообщение

Galfimbul

avatar Galfimbul


恋糸記念日 THE ANIMATION | Koiito Kinenbi The Animation | Праздник любви


Год выпуска: 2012
Страна: Япония
Жанр: big tits, neko, oral sex, small tits, titsjob, x-ray
Продолжительность: >2 эп. по 30 мин.
Субтитры: Отсутствуют
Цензура: Присутствует
Режиссёр: Raika Ken
Студия: Pink Pineapple
Описание:
Based on: "Koiito Kinenbi" (hentai manga) by Takayaki.
Информационные ссылки: AniDB || MAL || World Art || ХентайМаг
Исходник: DVD-5
Видео: MPEG2 | NTSC | 16x9 | 720x480 | 9800 Kbps
Аудио JAP: AC-3 | 48000Hz | 192 Kbps | 2ch
01. Volume 1
General
Complete name : H:\VIDEO_TS\VTS_01_1.VOB
Format : MPEG-PS
File size : 1 023 MiB
Duration : 15mn 40s
Overall bit rate mode : Variable
Overall bit rate : 9 128 Kbps

Video
ID : 224 (0xE0)
Format : MPEG Video
Format version : Version 2
Format profile : Main@Main
Format settings, BVOP : Yes
Format settings, Matrix : Custom
Duration : 15mn 40s
Bit rate mode : Variable
Bit rate : 8 755 Kbps
Maximum bit rate : 9 800 Kbps
Width : 720 pixels
Height : 480 pixels
Display aspect ratio : 16:9
Frame rate : 29.970 fps
Standard : NTSC
Color space : YUV
Chroma subsampling : 4:2:0
Bit depth : 8 bits
Scan type : Interlaced
Scan order : Top Field First
Compression mode : Lossy
Bits/(Pixel*Frame) : 0.845
Stream size : 982 MiB (96%)

Audio
ID : 189 (0xBD)-128 (0x80)
Format : AC-3
Format/Info : Audio Coding 3
Mode extension : CM (complete main)
Muxing mode : DVD-Video
Duration : 15mn 40s
Bit rate mode : Constant
Bit rate : 192 Kbps
Channel(s) : 2 channels
Channel positions : Front: L R
Sampling rate : 48.0 KHz
Bit depth : 16 bits
Compression mode : Lossy
Stream size : 21.5 MiB (2%)


Трекер:  [ 25-Фев-2013 20:01 ]

  

Скачать .torrent

Размер .torrent файла 15 KB


Размер: 3.01 GB
Хэш (hash) релиза: 969bac465b4088238fc0a84bbcf68d8702fdfbb3

bot

Топик был перенесен в форум Хентай | С цензурой

Перенес Galfimbul

Хотите добавить комментарий к записи скачать торрент Koiito Kinenbi The Animation Праздник любви

!Обратная связь