Скачать порно через торрент Akebi no Hana: Maho Принцесса цветущей вершины: Махо UnionPeer.org бесплатно онлайн HD качество

Скачать новое порно 2015, 2014 новинки через торрент UnionPeer.org

Порно торрент бесплатно ЮнионПир.орг

Если у вас наблюдаются проблемы со скриншотами, переходом по ссылками, скачиванием торрентов - проблемы в блокировщике рекламы AdBlock. #хорошегоДня!


Статистика раздачи
Размер:  1.88 GB   |    Зарегистрирован:  4 года 5 месяцев   |    .torrent скачан:  122 раза   |   
Раздают:  1  
   
Загрузка...
 
Автор Сообщение

Galfimbul

avatar Galfimbul


山姫の花 真穂 | Akebi no Hana: Maho | Принцесса цветущей вершины: Махо


Год выпуска: 2011
Страна: Япония
Жанр: ahegao, big tits, ntr, oral, slut, straight, virgin
Продолжительность: >1 эп. 30 мин.
Субтитры: Отсутствуют
Цензура: Присутствует
Студия: BOOTLEG
Описание:
Naoki, in search of employment, leaves Tokyo for his hometown. Upon his arrival, he is greeted warmly by old friends. Amongst them is childhood friend and lover Miho. At first glance, it seems as if she hadn't changed since the day when she had tearfully seen Naoki off to college. Unfortunately, all is not well beneath the surface...
Информационные ссылки: AniDB || World Art || ХентайМаг
Исходник: DVD-5
Видео: MPEG2 | NTSC | 16x9 | 720x480 | 9800 Kbps
Аудио JAP: AC-3 | 48000Hz | 384 Kbps | 2ch
01. OVA
General
Complete name : H:\VIDEO_TS\VTS_01_1.VOB
Format : MPEG-PS
File size : 1 024 MiB
Duration : 14mn 4s
Overall bit rate mode : Variable
Overall bit rate : 10.2 Mbps

Video
ID : 224 (0xE0)
Format : MPEG Video
Format version : Version 2
Format profile : Main@Main
Format settings, BVOP : Yes
Format settings, Matrix : Custom
Duration : 14mn 4s
Bit rate mode : Variable
Bit rate : 9 586 Kbps
Maximum bit rate : 9 800 Kbps
Width : 720 pixels
Height : 480 pixels
Display aspect ratio : 16:9
Frame rate : 29.970 fps
Standard : NTSC
Color space : YUV
Chroma subsampling : 4:2:0
Bit depth : 8 bits
Scan type : Interlaced
Scan order : Top Field First
Compression mode : Lossy
Bits/(Pixel*Frame) : 0.926
Stream size : 965 MiB (94%)

Audio
ID : 189 (0xBD)-128 (0x80)
Format : AC-3
Format/Info : Audio Coding 3
Mode extension : CM (complete main)
Muxing mode : DVD-Video
Duration : 14mn 4s
Bit rate mode : Constant
Bit rate : 384 Kbps
Channel(s) : 2 channels
Channel positions : Front: L R
Sampling rate : 48.0 KHz
Bit depth : 16 bits
Compression mode : Lossy
Stream size : 38.6 MiB (4%)


Трекер:  [ 25-Фев-2013 20:01 ]

  

Скачать .torrent

Размер .torrent файла 19 KB


Размер: 1.88 GB
Хэш (hash) релиза: 4b49258978622441ced2eca805093c5e42e0e192

bot

Топик был перенесен в форум Хентай | С цензурой

Перенес Galfimbul

Хотите добавить комментарий к записи скачать торрент Akebi no Hana: Maho Принцесса цветущей вершины: Махо

!Обратная связь