Скачать порно через торрент Inshitsu Otaku ni Ikareru Kanojo Использование сестрёнки UnionPeer.org бесплатно онлайн HD качество

Скачать новое порно 2015, 2014 новинки через торрент UnionPeer.org

Порно торрент бесплатно ЮнионПир.орг

Если у вас наблюдаются проблемы со скриншотами, переходом по ссылками, скачиванием торрентов - проблемы в блокировщике рекламы AdBlock. #хорошегоДня!


Статистика раздачи
Размер:  3.53 GB   |    Зарегистрирован:  4 года 5 месяцев   |    .torrent скачан:  349 раз   |   
Раздают:  1  
   
Загрузка...
 
Автор Сообщение

Galfimbul

avatar Galfimbul


陰湿オタクにイカれる妹[彼女] | Inshitsu Otaku ni Ikareru Kanojo | Использование сестрёнки


Год выпуска: 2011
Страна: Япония
Жанр: big tits, rape, school uniform, virgin
Продолжительность: >3 эп. по 20 мин.
Субтитры: Отсутствуют
Цензура: Присутствует
Режиссёр: Tomii Wataru
Студия: Studio 9 Maiami
Описание:
Shuuji lives a peaceful life with his younger sister, Saki. But he secretly loves her and his libido gets uncontrollable day by day. One day, Saki tells him, "I love you.... I've been always thinking about you since I was a kid...." Like this, they become boyfriend/girlfriend. However, their happiness is destroyed by an email. "I know your everything...." The email attaches a photo of Saki changing clothes and masturbating. Saki thinks her stalker did it. The stalker gives her various immoral orders. She first tries to resist it, but she gradually gets addicted to it.... Well, will Shuuji be able to save Saki...?
Информационные ссылки: AniDB || MAL || World Art || ХентайМаг
Исходник: DVD-5
Видео: MPEG2 | NTSC | 16x9 | 720x480 | 8000 Kbps
Аудио JAP: AC-3 | 48000Hz | 192 Kbps | 2ch
01. Volume 1
02. Volume 2
03. Volume 3
General
Complete name : H:\VIDEO_TS\VTS_01_1.VOB
Format : MPEG-PS
File size : 1 024 MiB
Duration : 17mn 3s
Overall bit rate : 8 392 Kbps

Video
ID : 224 (0xE0)
Format : MPEG Video
Format version : Version 2
Format profile : Main@Main
Format settings, BVOP : Yes
Format settings, Matrix : Custom
Duration : 17mn 3s
Bit rate : 8 000 Kbps
Width : 720 pixels
Height : 480 pixels
Display aspect ratio : 16:9
Frame rate : 29.970 fps
Standard : NTSC
Color space : YUV
Chroma subsampling : 4:2:0
Bit depth : 8 bits
Scan type : Interlaced
Scan order : Top Field First
Compression mode : Lossy
Bits/(Pixel*Frame) : 0.772
Stream size : 980 MiB (96%)

Audio
ID : 189 (0xBD)-128 (0x80)
Format : AC-3
Format/Info : Audio Coding 3
Mode extension : CM (complete main)
Muxing mode : DVD-Video
Duration : 17mn 3s
Bit rate mode : Constant
Bit rate : 192 Kbps
Channel(s) : 2 channels
Channel positions : Front: L R
Sampling rate : 48.0 KHz
Bit depth : 16 bits
Compression mode : Lossy
Stream size : 23.4 MiB (2%)


Исходник: DVD-5
Видео: MPEG2 | NTSC | 16x9 | 720x480 | 8000 Kbps
Аудио JAP: AC-3 | 48000Hz | 192 Kbps | 2ch
General
Complete name : H:\VIDEO_TS\VTS_01_1.VOB
Format : MPEG-PS
File size : 1 024 MiB
Duration : 17mn 3s
Overall bit rate : 8 394 Kbps

Video
ID : 224 (0xE0)
Format : MPEG Video
Format version : Version 2
Format profile : Main@Main
Format settings, BVOP : Yes
Format settings, Matrix : Custom
Duration : 17mn 3s
Bit rate : 8 000 Kbps
Width : 720 pixels
Height : 480 pixels
Display aspect ratio : 16:9
Frame rate : 29.970 fps
Standard : NTSC
Color space : YUV
Chroma subsampling : 4:2:0
Bit depth : 8 bits
Scan type : Interlaced
Scan order : Top Field First
Compression mode : Lossy
Bits/(Pixel*Frame) : 0.772
Stream size : 980 MiB (96%)

Audio
ID : 189 (0xBD)-128 (0x80)
Format : AC-3
Format/Info : Audio Coding 3
Mode extension : CM (complete main)
Muxing mode : DVD-Video
Duration : 17mn 2s
Bit rate mode : Constant
Bit rate : 192 Kbps
Channel(s) : 2 channels
Channel positions : Front: L R
Sampling rate : 48.0 KHz
Bit depth : 16 bits
Compression mode : Lossy
Stream size : 23.4 MiB (2%)


Исходник: DVD-5
Видео: MPEG2 | NTSC | 16x9 | 720x480 | 8000 Kbps
Аудио JAP: AC-3 | 48000Hz | 192 Kbps | 2ch
General
Complete name : H:\VIDEO_TS\VTS_01_1.VOB
Format : MPEG-PS
File size : 1 024 MiB
Duration : 17mn 3s
Overall bit rate : 8 394 Kbps

Video
ID : 224 (0xE0)
Format : MPEG Video
Format version : Version 2
Format profile : Main@Main
Format settings, BVOP : Yes
Format settings, Matrix : Custom
Duration : 17mn 3s
Bit rate : 8 000 Kbps
Width : 720 pixels
Height : 480 pixels
Display aspect ratio : 16:9
Frame rate : 29.970 fps
Standard : NTSC
Color space : YUV
Chroma subsampling : 4:2:0
Bit depth : 8 bits
Scan type : Interlaced
Scan order : Top Field First
Compression mode : Lossy
Bits/(Pixel*Frame) : 0.772
Stream size : 980 MiB (96%)

Audio
ID : 189 (0xBD)-128 (0x80)
Format : AC-3
Format/Info : Audio Coding 3
Mode extension : CM (complete main)
Muxing mode : DVD-Video
Duration : 17mn 3s
Bit rate mode : Constant
Bit rate : 192 Kbps
Channel(s) : 2 channels
Channel positions : Front: L R
Sampling rate : 48.0 KHz
Bit depth : 16 bits
Compression mode : Lossy
Stream size : 23.4 MiB (2%)


Трекер:  [ 25-Фев-2013 20:01 ]

  

Скачать .torrent

Размер .torrent файла 18 KB


Размер: 3.53 GB
Хэш (hash) релиза: 94e658ce6fb20a533d9417028c712af4a8594ec6

bot

Топик был перенесен в форум Хентай | С цензурой

Перенес Galfimbul

Хотите добавить комментарий к записи скачать торрент Inshitsu Otaku ni Ikareru Kanojo Использование сестрёнки

!Обратная связь