Скачать порно через торрент Zettai Junshu Kyousei Kozukuri Kyokashou!! Абсолютная покорность: Секс по лицензии!! UnionPeer.org бесплатно онлайн HD качество

Скачать новое порно 2015, 2014 новинки через торрент UnionPeer.org

Порно торрент бесплатно ЮнионПир.орг

Если у вас наблюдаются проблемы со скриншотами, переходом по ссылками, скачиванием торрентов - проблемы в блокировщике рекламы AdBlock. #хорошегоДня!


Статистика раздачи
Размер:  1.63 GB   |    Зарегистрирован:  4 года 5 месяцев   |    .torrent скачан:  166 раз   |   
Раздают:  1  
   
Загрузка...
 
Автор Сообщение

Galfimbul

avatar Galfimbul


ぜったい遵守☆強制子作り許可証!! | Zettai Junshu Kyousei Kozukuri Kyokashou!! | Абсолютная покорность: Секс по лицензии!!


Год выпуска: 2012
Страна: Япония
Жанр: oral sex, school, titsjob, x-ray
Продолжительность: >1 эп. 30 мин.
Субтитры: Отсутствуют
Цензура: Присутствует
Режиссёр: Murakami Teruaki
Студия: GOLD BEAR
Описание:
In the near future, mankind is on the brink of extinction owing to a drastic decline in the birth rate of males. To counter the declining overall birth rate, the country has introduced a new law and the Free Sex Licence. This Licence can be presented to any woman, anytime, anywhere, and that woman is legally bound to have sex with its bearer.

One night, Takumi receives one such Free Sex Licence and his life changes drastically. He has sex with Sara, a genius who's also curious about sex, and with Misaki, elder sister of his childhood friend Rin. Rin, who's secretly in love with Takumi, is extremely agitated by these occurrences. However, when Takumi inadvertently displays the licence in the classroom, Rin's first time is done in public...
Информационные ссылки: AniDB || MAL || World Art || ХентайМаг
Исходник: DVD-5
Видео: MPEG2 | NTSC | 16x9 | 720x480 | 8000 Kbps
Аудио JAP: AC-3 | 48000Hz | 224 Kbps | 2ch
01. Release Inside Everyone
General
Complete name : H:\VIDEO_TS\VTS_01_1.VOB
Format : MPEG-PS
File size : 1 024 MiB
Duration : 2mn 16s
Overall bit rate mode : Variable
Overall bit rate : 62.9 Mbps

Video
ID : 224 (0xE0)
Format : MPEG Video
Format version : Version 2
Format profile : Main@Main
Format settings, BVOP : Yes
Format settings, Matrix : Default
Format settings, GOP : M=3, N=15
Duration : 2mn 16s
Bit rate mode : Variable
Bit rate : 61.5 Mbps
Maximum bit rate : 8 000 Kbps
Width : 720 pixels
Height : 480 pixels
Display aspect ratio : 16:9
Frame rate : 29.970 fps
Standard : NTSC
Color space : YUV
Chroma subsampling : 4:2:0
Bit depth : 8 bits
Scan type : Progressive
Compression mode : Lossy
Bits/(Pixel*Frame) : 5.933
Stream size : 1 000 MiB (98%)

Audio
ID : 189 (0xBD)-128 (0x80)
Format : AC-3
Format/Info : Audio Coding 3
Mode extension : CM (complete main)
Muxing mode : DVD-Video
Duration : 2mn 16s
Bit rate mode : Constant
Bit rate : 224 Kbps
Channel(s) : 2 channels
Channel positions : Front: L R
Sampling rate : 48.0 KHz
Bit depth : 16 bits
Compression mode : Lossy
Delay relative to video : -66ms
Stream size : 3.64 MiB (0%)
Отсутствует


Трекер:  [ 25-Фев-2013 20:02 ]

  

Скачать .torrent

Размер .torrent файла 16 KB


Размер: 1.63 GB
Хэш (hash) релиза: eef5225bb6bf19c92608583a5e1489b090348c32

Торренты, похожие на Zettai Junshu Kyousei Kozukuri Kyokashou!! Абсолютная покорность: Секс по лицензии!! скачать торрент

Форум Название Автор Размер S L Добавлен
Хентай, порно и эротические мультфильмы ·· Zettai Junshu Kyousei Kozukuri Kyokashou!!/Абсолютная покорность: Секс по лицензии!!(Murakami Teruaki,Anime Antenna Iinkai)(ep.1-2of2)[cen][2012-2013,comedy,school,virgin,oral,footjob,paizuri,public,creampie,pregnant,BDRip][jap/rus/eng/ita/chi/kor] Galfimbul 929960459887 MB 4 1 1500192115

11:01

16-Июл-17

Хентай | С цензурой ·· Zettai Junshu Kyousei Kozukuri Kyokashou!! / Абсолютная покорность: Секс по лицензии!! (Murakami Teruaki, GOLD BEAR) (ep.1-2 of 2) [cen] [2012 г. Comedy, Virgin, Oral sex, Footjob, Titsjob, X-Ray, Public Sex, Pregnant, DVDRip] [jap / eng / rus (1)] LinGr 513615389490 MB 0 0 1382474342

23:39

22-Окт-13

Хентай | С цензурой ·· Zettai Junshu Kyousei Kozukuri Kyokashou!! / Абсолютная покорность: Секс по лицензии!! (Murakami Teruaki, GOLD BEAR) (ep.1 of ?) [cen] [2012 г. School, Oral sex, Titsjob, X-Ray, DVDRip] [jap / eng / rus] Galfimbul 153090769146 MB 0 0 1365627074

23:51

10-Апр-13

Хентай, порно и эротические мультфильмы ·· Zettai Junshu Kyousei Kozukuri Kyokashou!! / Абсолютная покорность: Секс по лицензии!! (ep. 1 of ??)(GOLD BEAR, Murakami Teruaki) [cen] [2012 г., School, Oral sex, Titsjob, X-Ray, DVDRip] [jap] L 497087472474 MB 0 0 1357723560

12:26

9-Янв-13

bot

Топик был перенесен в форум Хентай | С цензурой

Перенес Galfimbul

Хотите добавить комментарий к записи скачать торрент Zettai Junshu Kyousei Kozukuri Kyokashou!! Абсолютная покорность: Секс по лицензии!!

!Обратная связь