Скачать порно через торрент Unsweet: Netorare Ochita Onna-tachi Несладкая: Падшая женщина UnionPeer.org бесплатно онлайн HD качество

Скачать новое порно 2015, 2014 новинки через торрент UnionPeer.org

Порно торрент бесплатно ЮнионПир.орг

Если у вас наблюдаются проблемы со скриншотами, переходом по ссылками, скачиванием торрентов - проблемы в блокировщике рекламы AdBlock. #хорошегоДня!


Статистика раздачи
Размер:  1.54 GB   |    Зарегистрирован:  4 года 5 месяцев   |    .torrent скачан:  149 раз   |   
Раздают:  1  
   
Загрузка...
 
Автор Сообщение

Galfimbul

avatar Galfimbul



アンスイート-寝取られ堕ちた女たち- | Unsweet: Netorare Ochita Onna-tachi | Несладкая: Падшая женщина


Год выпуска: 2012
Страна: Япония
Жанр: female teachers, large breasts, rape, school, students, virgin
Продолжительность: >1 эп. 30 мин.
Субтитры: Отсутствуют
Цензура: Присутствует
Режиссёр: Raika Ken
Студия: T-Rex
Описание:
Based on the erotic manga by Tanaka Aji.
Информационные ссылки: AniDB || MAL || World Art || ХентайМаг
Исходник: DVD-5
Видео: MPEG2 | NTSC | 16x9 | 720x480 | 7500 Kbps
Аудио JAP: AC-3 | 48000Hz | 224 Kbps | 2ch
01. Volume 1
General
Complete name : H:\VIDEO_TS\VTS_01_1.VOB
Format : MPEG-PS
File size : 1 024 MiB
Duration : 2mn 31s
Overall bit rate : 56.8 Mbps

Video
ID : 224 (0xE0)
Format : MPEG Video
Format version : Version 2
Format profile : Main@Main
Format settings, BVOP : Yes
Format settings, Matrix : Default
Format settings, GOP : M=3, N=12
Duration : 2mn 31s
Bit rate : 55.4 Mbps
Maximum bit rate : 7 500 Kbps
Width : 720 pixels
Height : 480 pixels
Display aspect ratio : 16:9
Frame rate : 29.970 fps
Standard : NTSC
Color space : YUV
Chroma subsampling : 4:2:0
Bit depth : 8 bits
Scan type : Interlaced
Scan order : Bottom Field First
Compression mode : Lossy
Bits/(Pixel*Frame) : 5.351
Stream size : 999 MiB (98%)

Audio
ID : 189 (0xBD)-128 (0x80)
Format : AC-3
Format/Info : Audio Coding 3
Mode extension : CM (complete main)
Muxing mode : DVD-Video
Duration : 2mn 31s
Bit rate mode : Constant
Bit rate : 224 Kbps
Channel(s) : 2 channels
Channel positions : Front: L R
Sampling rate : 48.0 KHz
Bit depth : 16 bits
Compression mode : Lossy
Delay relative to video : -66ms
Stream size : 4.04 MiB (0%)


Трекер:  [ 25-Фев-2013 20:02 ]

  

Скачать .torrent

Размер .torrent файла 16 KB


Размер: 1.54 GB
Хэш (hash) релиза: f806b57959af9de5c7dd64b3c02fbd91cf4db472

bot

Топик был перенесен в форум Хентай | С цензурой

Перенес Galfimbul

Хотите добавить комментарий к записи скачать торрент Unsweet: Netorare Ochita Onna-tachi Несладкая: Падшая женщина

!Обратная связь