Скачать порно через торрент Buta Hime-sama Принцесса-свинья UnionPeer.org бесплатно онлайн HD качество

Скачать новое порно 2015, 2014 новинки через торрент UnionPeer.org

Порно торрент бесплатно ЮнионПир.орг

Если у вас наблюдаются проблемы со скриншотами, переходом по ссылками, скачиванием торрентов - проблемы в блокировщике рекламы AdBlock. #хорошегоДня!


Статистика раздачи
Размер:  2.6 GB   |    Зарегистрирован:  4 года 5 месяцев   |    .torrent скачан:  602 раза   |   
Раздают:  2  
   
Загрузка...
 
Автор Сообщение

Galfimbul

avatar Galfimbul


豚姫様 | Buta Hime-sama | Принцесса-свинья


Год выпуска: 2011
Страна: Япония
Жанр: ahegao, anal, big tits, group sex, incest
Продолжительность: >1 эп. 25 мин.
Субтитры: Отсутствуют
Цензура: Присутствует
Режиссёр: Nagai Shinpei
Студия: Pink Pineapple
Описание:
The peaceful country of Istoare is invaded by vicious orcs. To preserve her people, Queen Ilena agrees to marry the king of the invaders.
Информационные ссылки: AniDB || MAL || World Art || ХентайМаг
Исходник: DVD-5
Видео: MPEG2 | NTSC | 16x9 | 720x480 | 9400 Kbps
Аудио JAP: AC-3 | 48000Hz | 192 Kbps | 2ch
01. OVA
General
Complete name : H:\VIDEO_TS\VTS_01_1.VOB
Format : MPEG-PS
File size : 1 024 MiB
Duration : 16mn 56s
Overall bit rate mode : Variable
Overall bit rate : 8 450 Kbps
Writing library : encoded by TMPGEnc 4.0 XPress Version. 4.7.9.311

Video
ID : 224 (0xE0)
Format : MPEG Video
Format version : Version 2
Format profile : Main@Main
Format settings, BVOP : Yes
Format settings, Matrix : Custom
Format settings, GOP : M=3, N=16
Duration : 16mn 56s
Bit rate mode : Variable
Bit rate : 8 090 Kbps
Maximum bit rate : 9 400 Kbps
Width : 720 pixels
Height : 480 pixels
Display aspect ratio : 16:9
Frame rate : 29.970 fps
Standard : NTSC
Color space : YUV
Chroma subsampling : 4:2:0
Bit depth : 8 bits
Scan type : Interlaced
Scan order : Top Field First
Compression mode : Lossy
Bits/(Pixel*Frame) : 0.781
Stream size : 980 MiB (96%)
Writing library : TMPGEnc XPress 4.7.9.311
Color primaries : SMPTE 170M
Transfer characteristics : SMPTE 170M
Matrix coefficients : SMPTE 170M

Audio
ID : 189 (0xBD)-128 (0x80)
Format : AC-3
Format/Info : Audio Coding 3
Mode extension : CM (complete main)
Muxing mode : DVD-Video
Duration : 16mn 56s
Bit rate mode : Constant
Bit rate : 192 Kbps
Channel(s) : 2 channels
Channel positions : Front: L R
Sampling rate : 48.0 KHz
Bit depth : 16 bits
Compression mode : Lossy
Stream size : 23.3 MiB (2%)


Трекер:  [ 25-Фев-2013 20:02 ]

  

Скачать .torrent

Размер .torrent файла 13 KB


Размер: 2.6 GB
Хэш (hash) релиза: bf2fb7334551a475625062606658260b0e15febf

bot

Топик был перенесен в форум Хентай | С цензурой

Перенес Galfimbul

Хотите добавить комментарий к записи скачать торрент Buta Hime-sama Принцесса-свинья

!Обратная связь