Скачать порно через торрент Sonico the Onanimation UnionPeer.org бесплатно онлайн HD качество

Скачать новое порно 2015, 2014 новинки через торрент UnionPeer.org

Порно торрент бесплатно ЮнионПир.орг

Если у вас наблюдаются проблемы со скриншотами, переходом по ссылками, скачиванием торрентов - проблемы в блокировщике рекламы AdBlock. #хорошегоДня!


Статистика раздачи
Размер:  2.34 GB   |    Зарегистрирован:  4 года 5 месяцев   |    .torrent скачан:  1026 раз   |   
Раздают:  1  
   
Загрузка...
 
Автор Сообщение

Galfimbul

avatar Galfimbul



Sonico the Onanimation/ そに子☆ザ オナニメーション

Год выпуска:08/25/2012
Жанр: Anal, Rape, Huge Dildo, Huge Toys, Cervix Fuck, Large Insertion, Stretching
Продолжительность: 28:49
Цензура: Есть во всех файлах

Язык: Японский
Озвучка: Оригинальная
Автор оригинала: KNOCKOUT, USSO
Описание: Want to see the headphone-sporting pink haired cutie masturbate?
S*per Sonico is on a webcam, busted and pink-cheeked with shame. Her onani maniac addiction
has been found out, and now the whole world can drink in her sessions!
From her fingers to vibrator to object insertion she flicks, rubs, and rides her way to multiple
orgasms, even gaping her vagina so you can see right into her womb.
Format : AVI
Format/Info : Audio Video Interleave
Format profile : OpenDML
File size : 1.42 GiB
Duration : 28mn 48s
Overall bit rate : 7 038 Kbps
Writing application : Lavf52.93.0
Video #0
ID : 0
Format : MPEG-4 Visual
Format profile : Simple@L1
Format settings, BVOP : No
Format settings, QPel : No
Format settings, GMC : No warppoints
Format settings, Matrix : Default (H.263)
Codec ID : DIVX
Codec ID/Info : Project Mayo
Codec ID/Hint : DivX 4
Duration : 28mn 48s
Bit rate : 6 768 Kbps
Width : 1 280 pixels
Height : 720 pixels
Display aspect ratio : 16:9
Frame rate : 29.970 fps
Color space : YUV
Chroma subsampling : 4:2:0
Bit depth : 8 bits
Scan type : Progressive
Compression mode : Lossy
Bits/(Pixel*Frame) : 0.245
Stream size : 1.36 GiB (96%)
Writing library : Lavc52.108.0
Audio #1
ID : 1
Format : MPEG Audio
Format version : Version 1
Format profile : Layer 3
Mode : Joint stereo
Mode extension : MS Stereo
Codec ID : 55
Codec ID/Hint : MP3
Duration : 28mn 48s
Bit rate mode : Constant
Bit rate : 256 Kbps
Channel(s) : 2 channels
Sampling rate : 44.1 KHz
Compression mode : Lossy
Stream size : 52.8 MiB (4%)
Alignment : Aligned on interleaves
Interleave, duration : 26 ms (0.78 video frame)
Interleave, preload duration : 52 ms
Writing library : LAME3.98.4
JAP Dlsite ENG Dlsite

Тип HD видео: 720p
Качество видео: DLversion
Формат видео: AVI
Видео кодек: DivX
Аудио кодек: MP3
Видео: 1280 x 720, 16:9, 29,970 fps, 6768 kbps
Аудио: 256 kbps, 44.1 KHz, 2ch
Oden Girl the Animation - Extra Lesson of a Futanari Teacher/おでん娘theアニメーション ふたなり教師の課外授業

Год выпуска:01/16/2013
Жанр:Anal, Gape, Huge Dildo, Huge Toys, Large Insertion, Stretching, Futanari, Tentacles, Fisting
Продолжительность:19:46
Цензура: Есть во всех файлах

Язык: Японский
Озвучка: Оригинальная
Автор оригинала: KNOCKOUT, USSO
Описание: The popular teacher in the school turns out to be a hermaphrodite! And a sexual lesson given by a lesbian student starts... Vibrator, breast sex, blowjob, anus and the play gets more and more extreme!
Amazingly voiced by two voice actresses!
Format : AVI
Format/Info : Audio Video Interleave
File size : 949 MiB
Duration : 19mn 45s
Overall bit rate : 6 711 Kbps
Writing application : Lavf52.93.0
Video #0
ID : 0
Format : MPEG-4 Visual
Format profile : Simple@L1
Format settings, BVOP : No
Format settings, QPel : No
Format settings, GMC : No warppoints
Format settings, Matrix : Default (H.263)
Codec ID : DIVX
Codec ID/Info : Project Mayo
Codec ID/Hint : DivX 4
Duration : 19mn 45s
Bit rate : 6 443 Kbps
Width : 1 280 pixels
Height : 720 pixels
Display aspect ratio : 16:9
Frame rate : 29.970 fps
Color space : YUV
Chroma subsampling : 4:2:0
Bit depth : 8 bits
Scan type : Progressive
Compression mode : Lossy
Bits/(Pixel*Frame) : 0.233
Stream size : 910 MiB (96%)
Writing library : Lavc52.108.0
Audio #1
ID : 1
Format : MPEG Audio
Format version : Version 1
Format profile : Layer 3
Mode : Joint stereo
Mode extension : MS Stereo
Codec ID : 55
Codec ID/Hint : MP3
Duration : 19mn 45s
Bit rate mode : Constant
Bit rate : 256 Kbps
Channel(s) : 2 channels
Sampling rate : 44.1 KHz
Compression mode : Lossy
Stream size : 36.2 MiB (4%)
Alignment : Aligned on interleaves
Interleave, duration : 26 ms (0.78 video frame)
Interleave, preload duration : 52 ms
Writing library : LAME3.98.4
JAP Dlsite ENG Dlsite

Тип HD видео: 720p
Качество видео: DLversion
Формат видео: AVI
Видео кодек: DivX
Аудио кодек: MP3
Видео: 1280 x 720, 16:9, 29,970 fps, 6443 kbps
Аудио: 256 kbps, 44.1 KHz, 2ch

Трекер:  [ 25-Фев-2013 20:02 ]

  

Скачать .torrent

Размер .torrent файла 12 KB


Размер: 2.34 GB
Хэш (hash) релиза: 6cfeb08c4f4a942f1e5ef7ebaf818dd35f6af96e

Торренты, похожие на Sonico the Onanimation скачать торрент

Форум Название Автор Размер S L Добавлен
Хентай, порно и эротические мультфильмы ·· Sonico — The Onanimation (USSO, KNOCKOUT) [cen] [2012 г., Anal, Animation, Cervix Fuck, Large Insertion, Masturbation, Stretching, Toys, DLversion] [jap] Galfimbul 800364626763 MB 2 0 1347001740

10:09

7-Сен-12

bot

Топик был перенесен в форум Хентай | С цензурой

Перенес Galfimbul

Хотите добавить комментарий к записи скачать торрент Sonico the Onanimation

!Обратная связь