Скачать порно через торрент Kangoku Senkan Prison Battleship UnionPeer.org бесплатно онлайн HD качество

Скачать новое порно 2015, 2014 новинки через торрент UnionPeer.org

Порно торрент бесплатно ЮнионПир.орг

Если у вас наблюдаются проблемы со скриншотами, переходом по ссылками, скачиванием торрентов - проблемы в блокировщике рекламы AdBlock. #хорошегоДня!


Статистика раздачи
Размер:  12.89 GB   |    Зарегистрирован:  4 года 7 месяцев   |    .torrent скачан:  362 раза   |   
Раздают:  2  
   
Загрузка...
 
Автор Сообщение

Galfimbul

avatar Galfimbul


監獄戦艦 | Kangoku Senkan | Prison Battleship | Тюрьма Броненосец


Год выпуска: 2009
Страна: Япония
Жанр: blowjob, gangbang, large breasts, mature, rape
Продолжительность: >4 эп. по 30 мин.
Субтитры: Отсутствуют
Цензура: Присутствует
Режиссёр: Murakami Teruaki
Студия: Pixy
Описание:
It is an age where the human race has begun spreading through space. Mankind's territory has expanded through the entire solar system. Before long, "humanity of space" will increase to the point where Earth will no longer be their native home. Until then, the Space Federation Government, which recognized the sovereignty of every colonized planet, was established to revise doctrines favorable to Earth.

The protagonist, Donny Bogan, is a lieutenant in the Space Federation Force and is captain on the battleship Jacinthe, used to transport VIPs. However, the protagonist and crew of Jacinthe are secretly in a special military force affiliated with the political group "Neo Terrors," the heart of "neanderthals" born on Earth. They have had the special task of assassinating and kidnapping key figures of the political clique "New Soral," the heart of "humanity of space" and whose interests antagonize their own. Their next targets are the up-and-coming talented women of "New Soral": Commander Lieri Bishop and her aide, Major Naomi Evans. For the sake of Earth, the women intend to ascertain evidence of illegal activities of the main statesman in the "Neo Terrors" and indict him if necessary before a Federal Government session on Earth. Therefore, the men made plans to brainwash the two beautiful commissioned officers through means of their most skilled duty and change them into personalities convenient for them. "Tomorrow we will approach Titan, pick up both of them, and head for Earth. We'll use the equipment on this warship and brainwash them while we're in transit."

The protagonist was in no small way linked to the women. With deeply etched memories of humiliation, the protagonist surgically changed his face and achieved his current social status to one day exact revenge. "Now, how should I change you... Lieri Bishop, Naomi Evans? I've always been thinking of a special plan for the two of you."

Jacinthe sets course for Titan and begins wading silently through the vast cosmos.
Информационные ссылки: AniDB || MAL || World Art || ХентайМаг
Исходник: DVD-5
Видео: MPEG2 | NTSC | 16x9 | 720x480 | 8000 Kbps
Аудио JAP: AC-3 | 48000Hz | 192 Kbps | 2ch
01. Prelude of Brainwashing
02. Brainwashing Restructuring
03. Breakdown Complete
04. Hell`s End
General
Complete name : H:\VIDEO_TS\VTS_01_3.VOB
Format : MPEG-PS
File size : 1 024 MiB
Duration : 17mn 10s
Overall bit rate : 8 337 Kbps

Video
ID : 224 (0xE0)
Format : MPEG Video
Format version : Version 2
Format profile : Main@Main
Format settings, BVOP : Yes
Format settings, Matrix : Custom
Format settings, GOP : M=3, N=15
Duration : 17mn 10s
Bit rate : 8 000 Kbps
Width : 720 pixels
Height : 480 pixels
Display aspect ratio : 16:9
Frame rate : 29.970 fps
Standard : NTSC
Color space : YUV
Chroma subsampling : 4:2:0
Bit depth : 8 bits
Scan type : Interlaced
Scan order : Top Field First
Compression mode : Lossy
Bits/(Pixel*Frame) : 0.772
Stream size : 980 MiB (96%)

Audio
ID : 189 (0xBD)-128 (0x80)
Format : AC-3
Format/Info : Audio Coding 3
Mode extension : CM (complete main)
Muxing mode : DVD-Video
Duration : 17mn 10s
Bit rate mode : Constant
Bit rate : 192 Kbps
Channel(s) : 2 channels
Channel positions : Front: L R
Sampling rate : 48.0 KHz
Bit depth : 16 bits
Compression mode : Lossy
Delay relative to video : -169ms
Stream size : 23.6 MiB (2%)


Исходник: DVD-5
Видео: MPEG2 | NTSC | 16x9 | 720x480 | 8000 Kbps
Аудио JAP: AC-3 | 48000Hz | 192 Kbps | 2ch
General
Complete name : H:\VIDEO_TS\VTS_01_3.VOB
Format : MPEG-PS
File size : 1 024 MiB
Duration : 11h 46mn
Overall bit rate : 202 Kbps

Video
ID : 224 (0xE0)
Format : MPEG Video
Format version : Version 2
Format profile : Main@Main
Format settings, BVOP : Yes
Format settings, Matrix : Custom
Format settings, GOP : M=3, N=15
Duration : 11h 46mn
Maximum bit rate : 8 000 Kbps
Width : 720 pixels
Height : 480 pixels
Display aspect ratio : 16:9
Frame rate : 29.970 fps
Standard : NTSC
Color space : YUV
Chroma subsampling : 4:2:0
Bit depth : 8 bits
Scan type : Interlaced
Scan order : Top Field First
Compression mode : Lossy

Audio
ID : 189 (0xBD)-128 (0x80)
Format : AC-3
Format/Info : Audio Coding 3
Mode extension : CM (complete main)
Muxing mode : DVD-Video
Duration : 11h 46mn
Bit rate mode : Constant
Bit rate : 192 Kbps
Channel(s) : 2 channels
Channel positions : Front: L R
Sampling rate : 48.0 KHz
Bit depth : 16 bits
Compression mode : Lossy
Delay relative to video : -154ms
Stream size : 971 MiB (95%)


Исходник: DVD-5
Видео: MPEG2 | NTSC | 16x9 | 720x480 | 8000 Kbps
Аудио JAP: AC-3 | 48000Hz | 192 Kbps | 2ch
General
Complete name : H:\VIDEO_TS\VTS_01_3.VOB
Format : MPEG-PS
File size : 1 024 MiB
Duration : 12s 12ms
Overall bit rate : 715 Mbps

Video
ID : 224 (0xE0)
Format : MPEG Video
Format version : Version 2
Format profile : Main@Main
Format settings, BVOP : Yes
Format settings, Matrix : Custom
Format settings, GOP : M=3, N=15
Duration : 12s 12ms
Bit rate : 701 Mbps
Maximum bit rate : 8 000 Kbps
Width : 720 pixels
Height : 480 pixels
Display aspect ratio : 16:9
Frame rate : 29.970 fps
Standard : NTSC
Color space : YUV
Chroma subsampling : 4:2:0
Bit depth : 8 bits
Scan type : Interlaced
Scan order : Top Field First
Compression mode : Lossy
Bits/(Pixel*Frame) : 67.640
Stream size : 1 003 MiB (98%)

Audio
ID : 189 (0xBD)-128 (0x80)
Format : AC-3
Format/Info : Audio Coding 3
Mode extension : CM (complete main)
Muxing mode : DVD-Video
Duration : 12s 12ms
Bit rate mode : Constant
Bit rate : 192 Kbps
Channel(s) : 2 channels
Channel positions : Front: L R
Sampling rate : 48.0 KHz
Bit depth : 16 bits
Compression mode : Lossy
Delay relative to video : -215ms
Stream size : 282 KiB (0%)


Исходник: DVD-5
Видео: MPEG2 | NTSC | 16x9 | 720x480 | 8000 Kbps
Аудио JAP: AC-3 | 48000Hz | 192 Kbps | 2ch
General
Complete name : H:\VIDEO_TS\VTS_01_3.VOB
Format : MPEG-PS
File size : 1 024 MiB
Duration : 17mn 10s
Overall bit rate : 8 338 Kbps

Video
ID : 224 (0xE0)
Format : MPEG Video
Format version : Version 2
Format profile : Main@Main
Format settings, BVOP : Yes
Format settings, Matrix : Custom
Format settings, GOP : M=3, N=15
Duration : 17mn 10s
Bit rate : 8 000 Kbps
Width : 720 pixels
Height : 480 pixels
Display aspect ratio : 16:9
Frame rate : 29.970 fps
Standard : NTSC
Color space : YUV
Chroma subsampling : 4:2:0
Bit depth : 8 bits
Scan type : Interlaced
Scan order : Top Field First
Compression mode : Lossy
Bits/(Pixel*Frame) : 0.772
Stream size : 980 MiB (96%)

Audio
ID : 189 (0xBD)-128 (0x80)
Format : AC-3
Format/Info : Audio Coding 3
Mode extension : CM (complete main)
Muxing mode : DVD-Video
Duration : 17mn 10s
Bit rate mode : Constant
Bit rate : 192 Kbps
Channel(s) : 2 channels
Channel positions : Front: L R
Sampling rate : 48.0 KHz
Bit depth : 16 bits
Compression mode : Lossy
Delay relative to video : -172ms
Stream size : 23.6 MiB (2%)


Трекер:  [ 25-Фев-2013 20:02 ]

  

Скачать .torrent

Размер .torrent файла 65 KB


Размер: 12.89 GB
Хэш (hash) релиза: b95c38786203eeb3ebe41f3bfcd9c1a893877d5d

bot

Топик был перенесен в форум Хентай | С цензурой

Перенес Galfimbul

Хотите добавить комментарий к записи скачать торрент Kangoku Senkan Prison Battleship

!Обратная связь