Скачать порно через торрент Rei Zero Рей Ноль UnionPeer.org бесплатно онлайн HD качество

Скачать новое порно 2015, 2014 новинки через торрент UnionPeer.org

Порно торрент бесплатно ЮнионПир.орг

Если у вас наблюдаются проблемы со скриншотами, переходом по ссылками, скачиванием торрентов - проблемы в блокировщике рекламы AdBlock. #хорошегоДня!


Статистика раздачи
Размер:  6.18 GB   |    Зарегистрирован:  4 года 5 месяцев   |    .torrent скачан:  313 раз   |   
Раздают:  1  
   
Загрузка...
 
Автор Сообщение

Galfimbul

avatar Galfimbul


JレイZERO | Rei Zero | Рей Ноль


Год выпуска: 2010
Страна: Япония
Жанр: anal, big tits, bondage, bukkake, chikan, gangbang, office lady, oral, rape, x-ray
Продолжительность: >2 эп. по 30 мин.
Субтитры: Отсутствуют
Цензура: Присутствует
Режиссёр: Kaidou Tsukasa | Wada Heisaku
Студия: Oz Inc. | Pixy
Описание:
Tokyo fell into ruins following the consecutive great earthquakes of 2014. As a result, the new city center is built in the location of the former Nishitokyo. Meanwhile, Shinjuku and the submerged Minato wards devolved into slum areas. Further, due to the Immigration Laws of 2040, these slums saw an influx of refugees, mafioso, and terrorists, and is now the leading crime capital of the world.

The year is now 2049, and this is the stage in which two women embark on an operation to arrest a dangerous drug dealer.
Информационные ссылки: AniDB || MAL || World Art || ХентайМаг
Исходник: DVD-5
Видео: MPEG2 | NTSC | 16x9 | 720x480 | 8000 Kbps
Аудио JAP: AC-3 | 48000Hz | 192 Kbps | 2ch
01. Capture The Special Investigator!
02. The Female Investigator Turned Into A Slutty Pig!
General
Complete name : H:\VIDEO_TS\VTS_01_3.VOB
Format : MPEG-PS
File size : 1 024 MiB
Duration : 17mn 8s
Overall bit rate : 8 346 Kbps

Video
ID : 224 (0xE0)
Format : MPEG Video
Format version : Version 2
Format profile : Main@Main
Format settings, BVOP : Yes
Format settings, Matrix : Custom
Format settings, GOP : M=3, N=15
Duration : 17mn 8s
Bit rate : 8 000 Kbps
Width : 720 pixels
Height : 480 pixels
Display aspect ratio : 16:9
Frame rate : 29.970 fps
Standard : NTSC
Color space : YUV
Chroma subsampling : 4:2:0
Bit depth : 8 bits
Scan type : Interlaced
Scan order : Top Field First
Compression mode : Lossy
Bits/(Pixel*Frame) : 0.772
Stream size : 980 MiB (96%)

Audio
ID : 189 (0xBD)-128 (0x80)
Format : AC-3
Format/Info : Audio Coding 3
Mode extension : CM (complete main)
Muxing mode : DVD-Video
Duration : 17mn 8s
Bit rate mode : Constant
Bit rate : 192 Kbps
Channel(s) : 2 channels
Channel positions : Front: L R
Sampling rate : 48.0 KHz
Bit depth : 16 bits
Compression mode : Lossy
Delay relative to video : -139ms
Stream size : 23.5 MiB (2%)


Исходник: DVD-5
Видео: MPEG2 | NTSC | 16x9 | 720x480 | 8000 Kbps
Аудио JAP: AC-3 | 48000Hz | 192 Kbps | 2ch
General
Complete name : H:\VIDEO_TS\VTS_01_3.VOB
Format : MPEG-PS
File size : 984 MiB
Duration : 10h 15mn
Overall bit rate : 224 Kbps

Video
ID : 224 (0xE0)
Format : MPEG Video
Format version : Version 2
Format profile : Main@Main
Format settings, BVOP : Yes
Format settings, Matrix : Custom
Format settings, GOP : M=3, N=15
Duration : 10h 15mn
Bit rate : 27.2 Kbps
Maximum bit rate : 8 000 Kbps
Width : 720 pixels
Height : 480 pixels
Display aspect ratio : 16:9
Frame rate : 29.970 fps
Standard : NTSC
Color space : YUV
Chroma subsampling : 4:2:0
Bit depth : 8 bits
Scan type : Interlaced
Scan order : Top Field First
Compression mode : Lossy
Bits/(Pixel*Frame) : 0.003
Stream size : 120 MiB (12%)

Audio
ID : 189 (0xBD)-128 (0x80)
Format : AC-3
Format/Info : Audio Coding 3
Mode extension : CM (complete main)
Muxing mode : DVD-Video
Duration : 10h 15mn
Bit rate mode : Constant
Bit rate : 192 Kbps
Channel(s) : 2 channels
Channel positions : Front: L R
Sampling rate : 48.0 KHz
Bit depth : 16 bits
Compression mode : Lossy
Delay relative to video : -153ms
Stream size : 845 MiB (86%)


Трекер:  [ 25-Фев-2013 20:03 ]

  

Скачать .torrent

Размер .torrent файла 31 KB


Размер: 6.18 GB
Хэш (hash) релиза: 568070d43554b6cd83b69f030069c7a9774aecfb

bot

Топик был перенесен в форум Хентай | С цензурой

Перенес Galfimbul

Хотите добавить комментарий к записи скачать торрент Rei Zero Рей Ноль

!Обратная связь