Скачать через торрент музыку Три могилы The Three Burials of Melquiades Estrada бесплатно без регистрации torrent

Если у вас наблюдаются проблемы со скриншотами, переходом по ссылками, скачиванием торрентов - проблемы в блокировщике рекламы AdBlock. #хорошегоДня!


Статистика раздачи
Размер:  289 MB   |    Зарегистрирован:  4 года 3 месяца   |    .torrent скачан:  22 раза   |   
Раздают:  1  
   
Загрузка...
 
Автор Сообщение

Galfimbul

avatar Galfimbul


Три могилы / The Three Burials of Melquiades Estrada

Жанр: Score / Soundtrack
Композитор: Marco Beltrami
Год выпуска диска: 2005
Год выпуска фильма: 2005
Страна-производитель диска: Франция
Издатель (лейбл): EuropaCorp
Номер по каталогу: Recall NA006
Аудиокодек: APE (*.ape)
Тип рипа: image+.cue
Битрейт аудио: lossless
Продолжительность: 59:26
Источник: emule
Наличие сканов в содержимом раздачи: да

Треклист:
01. Three burials of Melquiades (02:03)
02. Cinco aсos (01:18)
03. Fair to Midland (03:25)
Performed by Dwight Yoakam
04. Leaving Town (02:20)
05. Mike runs off (03:59)
06. I wonder who'll turn out the light (02:58)
Performed by Bobby Flores
07. Gift horse (01:59)
08. Can't keep it up (02:49)
09. The cheatin' hotel (05:11)
Performed by Hank Williams, Jr.
10. Entering town (01:16)
11. Fleeing illegals (01:18)
12. This could be the one (02:48)
Performed by Flaco Jimenez
13. Horse of death (01:35)
14. Pete confronts sheriff (01:17)
15. Stalking Mike (01:31)
16. Workin' man blues (02:42)
Performed by Merle Haggard
17. Shoot me (01:33)
18. House building (01:12)
19. Before the next teardrop falls (02:32)
Performed by Freddie Fender
20. No Jimenez (02:21)
21. Forgiveness (02:04)
22. Goodbye (02:45)
23. You can't rollerskate in a buffalo hero (01:54)
Performed by Roger Miller
24. Donde Estas Papa (05:13)
Performed by Lila Downs
EAC extraction logfile from 19. September 2006, 16:09 for CDMarco Beltrami / The Three Burials of Melquiades Estrada

Used drive : HL-DT-STDVDRAM GSA-4167B Adapter: 0 ID: 0Read mode : Secure with NO C2, accurate stream, disable cacheRead offset correction : 667Overread into Lead-In and Lead-Out : No

Used output format : Internal WAV Routines 44.100 Hz; 16 Bit; Stereo

Other options : Fill up missing offset samples with silence : Yes Delete leading and trailing silent blocks : No Installed external ASPI interface

Range status and errorsSelected range Filename D:\HQ ShareNet\The Three Burials of Melquiades Estrada.wav

Peak level 100.0 % Range quality 100.0 % CRC C040E3B5 Copy OK

No errors occured

End of status report
REM GENRE SoundtrackREM DATE 2005REM DISCID 4510A819REM COMMENT "ExactAudioCopy v0.95b4"PERFORMER "Marco Beltrami"TITLE "The Three Burials of Melquiades Estrada"FILE "The Three Burials of Melquiades Estrada.ape" WAVE TRACK 01 AUDIO TITLE "Three Burials of Melquiades" PERFORMER "Marco Beltrami" INDEX 01 00:00:00 TRACK 02 AUDIO TITLE "Cinco Aсos" PERFORMER "Marco Beltrami" INDEX 00 02:04:67 INDEX 01 02:06:67 TRACK 03 AUDIO TITLE "Fair to Midland" PERFORMER "Dwight Yoakam" INDEX 00 03:27:15 INDEX 01 03:29:15 TRACK 04 AUDIO TITLE "Leaving Town" PERFORMER "Marco Beltrami" INDEX 00 06:56:07 INDEX 01 06:58:07 TRACK 05 AUDIO TITLE "Mike Runs Off" PERFORMER "Marco Beltrami" INDEX 00 09:19:67 INDEX 01 09:21:67 TRACK 06 AUDIO TITLE "I Wonder Who'll Turn Out The Light" PERFORMER "Bobby Flores" INDEX 00 13:24:35 INDEX 01 13:26:35 TRACK 07 AUDIO TITLE "Gift Horse" PERFORMER "Marco Beltrami" INDEX 00 16:26:20 INDEX 01 16:28:20 TRACK 08 AUDIO TITLE "Can't Keep It Up" PERFORMER "Marco Beltrami" INDEX 00 18:30:30 INDEX 01 18:32:30 TRACK 09 AUDIO TITLE "The Cheatin' Hotel" PERFORMER "Hank Williams" INDEX 00 21:23:07 INDEX 01 21:25:07 TRACK 10 AUDIO TITLE "Entering Town" PERFORMER "Marco Beltrami" INDEX 00 26:37:72 INDEX 01 26:39:72 TRACK 11 AUDIO TITLE "Fleeing Illegals" PERFORMER "Marco Beltrami" INDEX 00 27:58:15 INDEX 01 28:00:15 TRACK 12 AUDIO TITLE "This Could Be The One" PERFORMER "Flaco Jimenez" INDEX 00 29:19:62 INDEX 01 29:21:62 TRACK 13 AUDIO TITLE "Horse of Death" PERFORMER "Marco Beltrami" INDEX 00 32:10:65 INDEX 01 32:12:65 TRACK 14 AUDIO TITLE "Pete Confronts Sheriff" PERFORMER "Marco Beltrami" INDEX 00 33:48:12 INDEX 01 33:50:12 TRACK 15 AUDIO TITLE "Stalking Mike" PERFORMER "Marco Beltrami" INDEX 00 35:06:65 INDEX 01 35:08:65 TRACK 16 AUDIO TITLE "Workin' Man Blues" PERFORMER "Merle Haggard" INDEX 00 36:41:67 INDEX 01 36:43:67 TRACK 17 AUDIO TITLE "Shoot Me" PERFORMER "Marco Beltrami" INDEX 00 39:28:02 INDEX 01 39:30:02 TRACK 18 AUDIO TITLE "House Building" PERFORMER "Marco Beltrami" INDEX 00 41:03:47 INDEX 01 41:05:47 TRACK 19 AUDIO TITLE "Before The Next Teardrop Falls" PERFORMER "Freddie Fender" INDEX 00 42:19:05 INDEX 01 42:21:05 TRACK 20 AUDIO TITLE "No Jimenez" PERFORMER "Marco Beltrami" INDEX 00 44:54:55 INDEX 01 44:56:55 TRACK 21 AUDIO TITLE "Forgiveness" PERFORMER "Marco Beltrami" INDEX 00 47:19:67 INDEX 01 47:21:67 TRACK 22 AUDIO TITLE "Goodbye" PERFORMER "Marco Beltrami" INDEX 00 49:29:07 INDEX 01 49:31:07 TRACK 23 AUDIO TITLE "You Can't Rollerstake In A Buffalo Herd" PERFORMER "Roger Miller" INDEX 00 52:17:52 INDEX 01 52:19:52 TRACK 24 AUDIO TITLE "Donde Estas Papa" PERFORMER "Lila Downs" INDEX 00 54:14:00 INDEX 01 54:16:00
Started at: воскресенье, 27. 01. 2013. - 0:19.39

1 file found

1 -===- C:\!_TORRENT\Marco Beltrami & VA - The Three Burials of Melquiades Estrada (2005) [APE]\The Three Burials of Melquiades Estrada.ape Extracted successfully Conclusion: This track looks like CDDA with probability 100% Tempfile successfully deleted.

Finished at: воскресенье, 27. 01. 2013. - 0:24.56 (operation time: 0:05.16)


Трекер:  [ 12-Июн-2013 16:36 ]

  

Скачать .torrent

Размер .torrent файла 12 KB


Размер: 289 MB
Хэш (hash) релиза: 9b2495c5d6f397189b26bb5dd381213aa79e8b4b

bot

Топик был перенесен в форум Саундтреки к фильмам и мультфильмам (lossless)

Перенес Galfimbul

Хотите добавить комментарий к записи скачать торрент Три могилы The Three Burials of Melquiades Estrada

!Обратная связь