Скачать через торрент музыку Армейские приключения In The Army Now бесплатно без регистрации torrent

Если у вас наблюдаются проблемы со скриншотами, переходом по ссылками, скачиванием торрентов - проблемы в блокировщике рекламы AdBlock. #хорошегоДня!


Статистика раздачи
Размер:  193 MB   |    Зарегистрирован:  4 года 5 месяцев   |    .torrent скачан:  20 раз   |   
Раздают:  1  
   
Загрузка...
 
Автор Сообщение

Galfimbul

avatar Galfimbul


Армейские приключения / In The Army Now

Жанр: Score
Композитор: Robert Folk
Год выпуска диска: 1994
Год выпуска фильма: 1994
Страна-производитель диска: США
Издатель (лейбл): Intrada
Номер по каталогу: MAF 7058D
Аудиокодек: APE (*.ape)
Тип рипа: image+.cue
Битрейт аудио: lossless
Продолжительность: 35:46
Источник: emule
Наличие сканов в содержимом раздачи: нет

Треклист:
01. Video Game (01:25)
02. Boot Camp (04:48)
03. Grenade Bunker (01:02)
04. Pugal Sticks (01:29)
05. Purified Water (02:04)
06. Ranger Attack (01:30)
07. The Mission (02:33)
08. Lost In The Desert (05:05)
09. New Transportation (01:06)
10. The Cobra (01:41)
11. Camel Traders (00:46)
12. Finding The F.A.V.s (00:40)
13. Bones (02:04)
14. The Raid Begins (01:06)
15. Last Chance (08:04)
EAC extraction logfile from 24. May 2006, 18:24 for CDRobert Folk / In The Army Now

Used drive : _NEC DVD_RW ND-1300A Adapter: 1 ID: 1Read mode : Secure with NO C2, accurate stream, disable cacheRead offset correction : 48Overread into Lead-In and Lead-Out : No

Used output format : Internal WAV Routines 44.100 Hz; 16 Bit; Stereo

Other options : Fill up missing offset samples with silence : Yes Delete leading and trailing silent blocks : No Installed external ASPI interface

Range status and errorsSelected range Filename C:\Lanzamientos\In The Army Now.wav

Peak level 100.0 % Range quality 100.0 % CRC C0298210 Copy OK

No errors occured

End of status report
REM GENRE SoundtrackREM DATE 1994REM DISCID C208610FREM COMMENT "ExactAudioCopy v0.95b4"PERFORMER "Robert Folk"TITLE "In The Army Now"FILE "Robert Folk - In The Army Now.ape" WAVE TRACK 01 AUDIO TITLE "Video Game" PERFORMER "Robert Folk" INDEX 01 00:00:00 TRACK 02 AUDIO TITLE "Boot Camp" PERFORMER "Robert Folk" INDEX 00 01:26:12 INDEX 01 01:26:62 TRACK 03 AUDIO TITLE "Grenade Bunker" PERFORMER "Robert Folk" INDEX 00 06:16:12 INDEX 01 06:17:37 TRACK 04 AUDIO TITLE "Pugal Sticks" PERFORMER "Robert Folk" INDEX 01 07:20:72 TRACK 05 AUDIO TITLE "Purified Water" PERFORMER "Robert Folk" INDEX 01 08:50:17 TRACK 06 AUDIO TITLE "Ranger Attack" PERFORMER "Robert Folk" INDEX 00 10:54:62 INDEX 01 10:55:65 TRACK 07 AUDIO TITLE "The Mission" PERFORMER "Robert Folk" INDEX 00 12:26:35 INDEX 01 12:27:62 TRACK 08 AUDIO TITLE "Lost In The Desert" PERFORMER "Robert Folk" INDEX 00 15:01:72 INDEX 01 15:02:52 TRACK 09 AUDIO TITLE "New Transportation" PERFORMER "Robert Folk" INDEX 01 20:09:00 TRACK 10 AUDIO TITLE "The Cobra" PERFORMER "Robert Folk" INDEX 00 21:16:12 INDEX 01 21:18:07 TRACK 11 AUDIO TITLE "Camel Traders" PERFORMER "Robert Folk" INDEX 00 22:59:70 INDEX 01 23:00:65 TRACK 12 AUDIO TITLE "Finding The F.A.V.S" PERFORMER "Robert Folk" INDEX 00 23:47:57 INDEX 01 23:48:15 TRACK 13 AUDIO TITLE "Bones" PERFORMER "Robert Folk" INDEX 00 24:29:42 INDEX 01 24:30:42 TRACK 14 AUDIO TITLE "The Raid Begins" PERFORMER "Robert Folk" INDEX 01 26:32:60 TRACK 15 AUDIO TITLE "Last Chance" PERFORMER "Robert Folk" INDEX 00 27:39:72 INDEX 01 27:40:30
Started at: воскресенье, 27. 01. 2013. - 1:01.03

1 file found

1 -===- C:\!_TORRENT\Robert Folk - In The Army Now (1994) [APE]\Robert Folk - In The Army Now.ape Extracted successfully Conclusion: This track looks like CDDA with probability 100% Tempfile successfully deleted.

Finished at: воскресенье, 27. 01. 2013. - 1:04.24 (operation time: 0:03.21)


Трекер:  [ 12-Июн-2013 16:36 ]

  

Скачать .torrent

Размер .torrent файла 16 KB


Размер: 193 MB
Хэш (hash) релиза: efc3210da66d0bde73a946681ba1d339ffb6da19

bot

Топик был перенесен в форум Саундтреки к фильмам и мультфильмам (lossless)

Перенес Galfimbul

Хотите добавить комментарий к записи скачать торрент Армейские приключения In The Army Now

!Обратная связь