Скачать через торрент музыку Бешеный пес и Глори Mad Dog and Glory бесплатно без регистрации torrent

Если у вас наблюдаются проблемы со скриншотами, переходом по ссылками, скачиванием торрентов - проблемы в блокировщике рекламы AdBlock. #хорошегоДня!


Статистика раздачи
Размер:  133 MB   |    Зарегистрирован:  4 года 5 месяцев   |    .torrent скачан:  108 раз   |   
Раздают:  1  
   
Загрузка...
 
Автор Сообщение

Galfimbul

avatar Galfimbul


Бешеный пес и Глори / Mad Dog and Glory

Жанр: Score
Композитор: Elmer Bernstein
Год выпуска диска: 1992
Год выпуска фильма: 1993
Страна-производитель диска: США
Издатель (лейбл): Varese Sarabande
Номер по каталогу: VSD 5415
Аудиокодек: FLAC (*.flac)
Тип рипа: tracks+.cue
Битрейт аудио: lossless
Продолжительность: 28:48
Источник: собственный рип
Наличие сканов в содержимом раздачи: нет

Треклист:
01. Cops and Robbers (06:44)
02. The Lonely Guy Theme (02:43)
03. Frank and Wayne (03:08)
04. Mad Dog and Glory (03:53)
05. Window Magic (04:07)
06. Just a Gigolo (I Ain't Got Nobody) (04:42)
Performed by Louis Prima
07. That Old Black Magic (02:55)
Performed by Louis Prima and Keely Smith
Exact Audio Copy V1.0 beta 3 from 29. August 2011

EAC extraction logfile from 4. February 2013, 22:38

Elmer Bernstein / Mad Dog and Glory

Used drive : Optiarc DVD RW AD-7173A Adapter: 2 ID: 0

Read mode : SecureUtilize accurate stream : YesDefeat audio cache : YesMake use of C2 pointers : No

Read offset correction : 48Overread into Lead-In and Lead-Out : NoFill up missing offset samples with silence : YesDelete leading and trailing silent blocks : NoNull samples used in CRC calculations : YesUsed interface : Native Win32 interface for Win NT & 2000Gap handling : Appended to previous track

Used output format : User Defined EncoderSelected bitrate : 128 kBit/sQuality : HighAdd ID3 tag : NoCommand line compressor : I:\Program Files\Exact Audio Copy v1beta3\Flac\flac.exeAdditional command line options : -V -8 -T "Genre=%genre%" -T "Artist=%artist%" -T "Title=%title%" -T "Album=%albumtitle%" -T "Date=%year%" -T "Tracknumber=%tracknr%" -T "Comment=%comment%" %source%

TOC of the extracted CD

Track | Start | Length | Start sector | End sector --------------------------------------------------------- 1 | 0:00.37 | 6:47.05 | 37 | 30566 2 | 6:47.42 | 2:46.38 | 30567 | 43054 3 | 9:34.05 | 3:10.07 | 43055 | 57311 4 | 12:44.12 | 3:54.53 | 57312 | 74914 5 | 16:38.65 | 4:09.50 | 74915 | 93639 6 | 20:48.40 | 4:44.25 | 93640 | 114964 7 | 25:32.65 | 2:55.65 | 114965 | 128154

Track 1

Filename I:\Program Files\Exact Audio Copy v1beta3\Atrox777 CD rips\Elmer Bernstein - Mad Dog and Glory (1992) [FLAC]\01. Elmer Bernstein - Cops and Robbers.wav

Pre-gap length 0:00:02.37

Peak level 94.4 % Extraction speed 1.2 X Track quality 100.0 % Test CRC C257F4C2 Copy CRC C257F4C2 Accurately ripped (confidence 1) [CA357874] (AR v1) Copy OK

Track 2

Filename I:\Program Files\Exact Audio Copy v1beta3\Atrox777 CD rips\Elmer Bernstein - Mad Dog and Glory (1992) [FLAC]\02. Elmer Bernstein - The Lonely Guy Theme.wav

Pre-gap length 0:00:02.14

Peak level 55.3 % Extraction speed 1.2 X Track quality 100.0 % Test CRC 1DD81653 Copy CRC 1DD81653 Accurately ripped (confidence 1) [931BC246] (AR v1) Copy OK

Track 3

Filename I:\Program Files\Exact Audio Copy v1beta3\Atrox777 CD rips\Elmer Bernstein - Mad Dog and Glory (1992) [FLAC]\03. Elmer Bernstein - Frank and Wayne.wav

Pre-gap length 0:00:02.69

Peak level 92.3 % Extraction speed 1.4 X Track quality 100.0 % Test CRC 0F44482D Copy CRC 0F44482D Accurately ripped (confidence 1) [77423188] (AR v1) Copy OK

Track 4

Filename I:\Program Files\Exact Audio Copy v1beta3\Atrox777 CD rips\Elmer Bernstein - Mad Dog and Glory (1992) [FLAC]\04. Elmer Bernstein - Mad Dog and Glory.wav

Pre-gap length 0:00:02.27

Peak level 68.4 % Extraction speed 1.3 X Track quality 99.9 % Test CRC 3659829D Copy CRC 3659829D Accurately ripped (confidence 1) [ED9B4520] (AR v1) Copy OK

Track 5

Filename I:\Program Files\Exact Audio Copy v1beta3\Atrox777 CD rips\Elmer Bernstein - Mad Dog and Glory (1992) [FLAC]\05. Elmer Bernstein - Window Magic.wav

Pre-gap length 0:00:01.64

Peak level 94.4 % Extraction speed 1.4 X Track quality 99.9 % Test CRC 923E346B Copy CRC 923E346B Accurately ripped (confidence 1) [6A039BB8] (AR v1) Copy OK

Track 6

Filename I:\Program Files\Exact Audio Copy v1beta3\Atrox777 CD rips\Elmer Bernstein - Mad Dog and Glory (1992) [FLAC]\06. Louis Prima - Just a Gigolo (I Ain't Got Nobody).wav

Pre-gap length 0:00:02.74

Peak level 81.8 % Extraction speed 1.7 X Track quality 100.0 % Test CRC 0487FEF5 Copy CRC 0487FEF5 Accurately ripped (confidence 1) [EFD7B973] (AR v1) Copy OK

Track 7

Filename I:\Program Files\Exact Audio Copy v1beta3\Atrox777 CD rips\Elmer Bernstein - Mad Dog and Glory (1992) [FLAC]\07. Louis Prima & Keely Smith - That Old Black Magic.wav

Pre-gap length 0:00:02.02

Peak level 81.8 % Extraction speed 1.7 X Track quality 100.0 % Test CRC B98DD79A Copy CRC B98DD79A Accurately ripped (confidence 1) [F91F8F5D] (AR v1) Copy OK

All tracks accurately ripped

No errors occurred

End of status report

==== Log checksum 02516A7E56E639C52F051C25679D89A1B7107DEF487514F03BC7D7CFBF918113 ====
REM GENRE SoundtrackREM DATE 1993REM DISCID 4A06AC07REM COMMENT "ExactAudioCopy v1.0b3"PERFORMER "Elmer Bernstein"TITLE "Mad Dog and Glory"FILE "01. Elmer Bernstein - Cops and Robbers.wav" WAVE TRACK 01 AUDIO TITLE "Cops and Robbers" PERFORMER "Elmer Bernstein" PREGAP 00:00:37 INDEX 01 00:00:00 TRACK 02 AUDIO TITLE "The Lonely Guy Theme" PERFORMER "Elmer Bernstein" INDEX 00 06:44:66FILE "02. Elmer Bernstein - The Lonely Guy Theme.wav" WAVE INDEX 01 00:00:00 TRACK 03 AUDIO TITLE "Frank and Wayne" PERFORMER "Elmer Bernstein" INDEX 00 02:43:44FILE "03. Elmer Bernstein - Frank and Wayne.wav" WAVE INDEX 01 00:00:00 TRACK 04 AUDIO TITLE "Mad Dog and Glory" PERFORMER "Elmer Bernstein" INDEX 00 03:07:55FILE "04. Elmer Bernstein - Mad Dog and Glory.wav" WAVE INDEX 01 00:00:00 TRACK 05 AUDIO TITLE "Window Magic" PERFORMER "Elmer Bernstein" INDEX 00 03:52:64FILE "05. Elmer Bernstein - Window Magic.wav" WAVE INDEX 01 00:00:00 TRACK 06 AUDIO TITLE "Just a Gigolo (I Ain't Got Nobody)" PERFORMER "Louis Prima" INDEX 00 04:06:51FILE "06. Louis Prima - Just a Gigolo (I Ain't Got Nobody).wav" WAVE INDEX 01 00:00:00 TRACK 07 AUDIO TITLE "That Old Black Magic" PERFORMER "Louis Prima & Keely Smith" INDEX 00 04:42:23FILE "07. Louis Prima & Keely Smith - That Old Black Magic.wav" WAVE INDEX 01 00:00:00
Started at: понедельник, 04. 02. 2013. - 22:57.28

7 files found

1 -===- C:\!_TORRENT\Elmer Bernstein - Mad Dog and Glory (1992) [FLAC]\01. Elmer Bernstein - Cops and Robbers.flac Extracted successfully Conclusion: This track looks like CDDA with probability 100% Tempfile successfully deleted.

2 -===- C:\!_TORRENT\Elmer Bernstein - Mad Dog and Glory (1992) [FLAC]\02. Elmer Bernstein - The Lonely Guy Theme.flac Extracted successfully Conclusion: This track looks like CDDA with probability 100% Tempfile successfully deleted.

3 -===- C:\!_TORRENT\Elmer Bernstein - Mad Dog and Glory (1992) [FLAC]\03. Elmer Bernstein - Frank and Wayne.flac Extracted successfully Conclusion: This track looks like CDDA with probability 100% Tempfile successfully deleted.

4 -===- C:\!_TORRENT\Elmer Bernstein - Mad Dog and Glory (1992) [FLAC]\04. Elmer Bernstein - Mad Dog and Glory.flac Extracted successfully Conclusion: This track looks like CDDA with probability 100% Tempfile successfully deleted.

5 -===- C:\!_TORRENT\Elmer Bernstein - Mad Dog and Glory (1992) [FLAC]\05. Elmer Bernstein - Window Magic.flac Extracted successfully Conclusion: This track looks like CDDA with probability 100% Tempfile successfully deleted.

6 -===- C:\!_TORRENT\Elmer Bernstein - Mad Dog and Glory (1992) [FLAC]\06. Louis Prima - Just a Gigolo (I Ain't Got Nobody).flac Extracted successfully Conclusion: This track looks like CDDA with probability 100% Tempfile successfully deleted.

7 -===- C:\!_TORRENT\Elmer Bernstein - Mad Dog and Glory (1992) [FLAC]\07. Louis Prima & Keely Smith - That Old Black Magic.flac Extracted successfully Conclusion: This track looks like CDDA with probability 100% Tempfile successfully deleted.

Finished at: понедельник, 04. 02. 2013. - 23:00.25 (operation time: 0:02.56)


Трекер:  [ 12-Июн-2013 16:39 ]

  

Скачать .torrent

Размер .torrent файла 11 KB


Размер: 133 MB
Хэш (hash) релиза: 1161e1a3f1149d8ff56c7f0a706c14d43ca2b9cc

bot

Топик был перенесен в форум Саундтреки к фильмам и мультфильмам (lossless)

Перенес Galfimbul

Хотите добавить комментарий к записи скачать торрент Бешеный пес и Глори Mad Dog and Glory

!Обратная связь