Скачать через торрент музыку Проклятие золотого цветка Curse of the Golden Flower бесплатно без регистрации torrent

Если у вас наблюдаются проблемы со скриншотами, переходом по ссылками, скачиванием торрентов - проблемы в блокировщике рекламы AdBlock. #хорошегоДня!


Статистика раздачи
Размер:  322 MB   |    Зарегистрирован:  4 года 5 месяцев   |    .torrent скачан:  19 раз   |   
Раздают:  1  
   
Загрузка...
 
Автор Сообщение

Galfimbul

avatar Galfimbul


Проклятие золотого цветка / Curse of the Golden Flower

Жанр: Score
Композитор: Shigeru Umebayashi
Год выпуска диска: 2007
Год выпуска фильма: 2006
Страна-производитель диска: USA
Издатель (лейбл): Lakeshore Records LLC
Номер по каталогу: 0780163389821
Аудиокодек: FLAC (*.flac)
Тип рипа: image+.cue
Битрейт аудио: lossless
Продолжительность: 49:20
Источник: собственный рип
Наличие сканов в содержимом раздачи: да
01. Opening02. Tai-He-Song03. Return to the Palac04. Theme of the Emperor05. Theme of the Empress06. Empress's Solitude07. Shadow & Escape08. Again09. Mother & Jai10. Portrait11. Theme of the Empress Fate12. Fight of the Sickle Troops13. Emperor & Empress14. Behind Pageant15. Huang Jin Jia16. Rebellion17. Price Yu's Ambition18. Betray to the Emperor19. Heroic Battle20. Wan's Last Moment21. End of the War22. Imperial Ceremony23. Curse of the Golden Flower24. Ending Title
Exact Audio Copy V1.0 beta 3 from 29. August 2011

Отчёт EAC об извлечении, выполненном 27. января 2013, 23:19

Shigeru Umebayashi / Curse of the Golden Flower

Дисковод: HL-DT-STDVDRAM GT30N Adapter: 1 ID: 0

Режим чтения : ДостоверностьИспользование точного потока : ДаОтключение кэша аудио : ДаИспользование указателей C2 : Нет

Коррекция смещения при чтении : 103Способность читать области Lead-in и Lead-out : НетЗаполнение пропущенных сэмплов тишиной : ДаУдаление блоков с тишиной в начале и конце : НетПри вычислениях CRC использовались нулевые сэмплы : ДаИнтерфейс : Встроенный Win32-интерфейс для Win NT/2000

Выходной формат : Пользовательский кодировщикВыбранный битрейт : 1024 kBit/sКачество : ВысокийДобавление ID3-тега : НетУтилита сжатия : C:\Program Files (x86)\FLAC\flac.exeДополнительные параметры : -V -8 %source%

TOC извлечённого CD

Трек | Старт | Длительность | Начальный сектор | Конечный сектор --------------------------------------------------------------------- 1 | 0:00.00 | 0:55.38 | 0 | 4162 2 | 0:55.38 | 1:17.65 | 4163 | 10002 3 | 2:13.28 | 1:22.54 | 10003 | 16206 4 | 3:36.07 | 1:28.09 | 16207 | 22815 5 | 5:04.16 | 1:45.17 | 22816 | 30707 6 | 6:49.33 | 0:46.28 | 30708 | 34185 7 | 7:35.61 | 1:34.59 | 34186 | 41294 8 | 9:10.45 | 1:38.60 | 41295 | 48704 9 | 10:49.30 | 3:58.28 | 48705 | 66582 10 | 14:47.58 | 0:41.04 | 66583 | 69661 11 | 15:28.62 | 2:05.27 | 69662 | 79063 12 | 17:34.14 | 2:29.36 | 79064 | 90274 13 | 20:03.50 | 2:46.71 | 90275 | 102795 14 | 22:50.46 | 3:09.72 | 102796 | 117042 15 | 26:00.43 | 0:56.25 | 117043 | 121267 16 | 26:56.68 | 2:52.44 | 121268 | 134211 17 | 29:49.37 | 1:25.71 | 134212 | 140657 18 | 31:15.33 | 2:40.34 | 140658 | 152691 19 | 33:55.67 | 3:38.45 | 152692 | 169086 20 | 37:34.37 | 1:04.09 | 169087 | 173895 21 | 38:38.46 | 1:18.07 | 173896 | 179752 22 | 39:56.53 | 1:41.08 | 179753 | 187335 23 | 41:37.61 | 2:38.48 | 187336 | 199233 24 | 44:16.34 | 5:03.56 | 199234 | 222014

Характеристики диапазона извлечения и сообщения об ошибках

Выбранный диапазон

Имя файла D:\Shigeru Umebayashi - Curse of the Golden Flower.wav

Пиковый уровень 100.0 % Скорость извлечения 2.0 X Качество диапазона 100.0 % CRC теста 290B5A6C CRC копии 290B5A6C Копирование... OK

Ошибок не произошло

AccurateRip: сводка

Трек 1 : извлечено точно (доверие 3) [6BAB00E9] (AR v1)Трек 2 : извлечено точно (доверие 3) [FAD9E0A9] (AR v1)Трек 3 : извлечено точно (доверие 3) [A85F0889] (AR v1)Трек 4 : извлечено точно (доверие 3) [DD5A4D63] (AR v1)Трек 5 : извлечено точно (доверие 3) [F90577A1] (AR v1)Трек 6 : извлечено точно (доверие 3) [67895F71] (AR v1)Трек 7 : извлечено точно (доверие 3) [478CE01D] (AR v1)Трек 8 : извлечено точно (доверие 3) [F38ACA5A] (AR v1)Трек 9 : извлечено точно (доверие 3) [B2E5E099] (AR v1)Трек 10 : извлечено точно (доверие 3) [2F2B9A4C] (AR v1)Трек 11 : извлечено точно (доверие 3) [8CB52DA0] (AR v1)Трек 12 : извлечено точно (доверие 3) [06DCF23E] (AR v1)Трек 13 : извлечено точно (доверие 3) [B87C7221] (AR v1)Трек 14 : извлечено точно (доверие 3) [50662B10] (AR v1)Трек 15 : извлечено точно (доверие 3) [A2332C7A] (AR v1)Трек 16 : извлечено точно (доверие 3) [FF620BAC] (AR v1)Трек 17 : извлечено точно (доверие 3) [0EFF0DBF] (AR v1)Трек 18 : извлечено точно (доверие 3) [34188B67] (AR v1)Трек 19 : извлечено точно (доверие 3) [38436005] (AR v1)Трек 20 : извлечено точно (доверие 3) [45678C3C] (AR v1)Трек 21 : извлечено точно (доверие 3) [D7AB0CE9] (AR v1)Трек 22 : извлечено точно (доверие 3) [10AEAD8E] (AR v1)Трек 23 : извлечено точно (доверие 3) [F7789827] (AR v1)Трек 24 : извлечено точно (доверие 3) [6BA8D729] (AR v1)

Все треки извлечены точно

Конец отчёта

==== Контрольная сумма отчёта C6E548ED3733CB75B3BB51E8C755B3C9C29364207277A6A4278481B8C7478AD3 ====


Трекер:  [ 12-Июн-2013 16:39 ]

  

Скачать .torrent

Размер .torrent файла 13 KB


Размер: 322 MB
Хэш (hash) релиза: ba81dda017433470dbb7ebde322914d07e14f836

bot

Топик был перенесен в форум Саундтреки к фильмам и мультфильмам (lossless)

Перенес Galfimbul

Хотите добавить комментарий к записи скачать торрент Проклятие золотого цветка Curse of the Golden Flower

!Обратная связь